(Black Metal) Woe - A Spell For the Death of Man - 2008, FLAC (tracks+.cue), lossless - Скачать

Страна: United States of America
Жанр: Black Metal
Lyrical themes:Ritual Satanism, Absinthe, Loss, Social Issues
Год выпуска диска: 2008
Производитель диска: Stronghold Records
Аудио кодек: FLAC
Тип рипа: tracks+.cue
Битрейт аудио: lossless
Продолжительность: 00:43:15
Трэклист:
01. Solitude 09:01
02. Alone With Our Failures 04:03
03. Longing Is All That Will Remain 07:16
04. Condemned as Prey 05:04
05. I See No Civilization 07:54
06. Wake in Mourning 04:18
07. Memento Mori 05:36
Источник:

soundtrack, cd, альбом, торрент, альбом, трек, lossless, бесплатно, высокое качество, torrent, metal, rock, дискография, музыка, песни, скачать, рок, mp3, download, композиции, метал

Exact Audio Copy V0.99 prebeta 5 from 4. May 2009
EAC extraction logfile from 22. October 2009, 16:20
Woe / A Spell for the Death Of Man
Used drive : HL-DT-STDVD-RAM GH10L Adapter: 2 ID: 0
Read mode : Secure
Utilize accurate stream : Yes
Defeat audio cache : Yes
Make use of C2 pointers : No
Read offset correction : 667
Overread into Lead-In and Lead-Out : No
Fill up missing offset samples with silence : Yes
Delete leading and trailing silent blocks : No
Null samples used in CRC calculations : Yes
Used interface : Native Win32 interface for Win NT & 2000
Gap handling : Appended to previous track
Used output format : User Defined Encoder
Selected bitrate : 128 kBit/s
Quality : High
Add ID3 tag : No
Command line compressor : C:\Program Files (x86)\Exact Audio Copy\Flac\flac.exe
Additional command line options : -V -8 -T "artist=%a" -T "title=%t" -T "album=%g" -T "date=%y" -T "tracknumber=%n" -T "genre=%m" %s
TOC of the extracted CD
Track | Start | Length | Start sector | End sector
---------------------------------------------------------
1 | 0:00.00 | 9:01.11 | 0 | 40585
2 | 9:01.11 | 4:03.04 | 40586 | 58814
3 | 13:04.15 | 7:16.59 | 58815 | 91573
4 | 20:20.74 | 5:04.32 | 91574 | 114405
5 | 25:25.31 | 7:54.51 | 114406 | 150006
6 | 33:20.07 | 4:18.51 | 150007 | 169407
7 | 37:38.58 | 5:36.02 | 169408 | 194609
Track 1
Filename F:\CD Rips\W\Woe\Woe\[2008] A Spell for the Death Of Man [FLAC]\01 - Solitude.wav
Pre-gap length 0:00:02.00
Peak level 99.5 %
Track quality 100.0 %
Test CRC 814B2B25
Copy CRC 814B2B25
Track not present in AccurateRip database
Copy OK
Track 2
Filename F:\CD Rips\W\Woe\Woe\[2008] A Spell for the Death Of Man [FLAC]\02 - Alone With Our Failures.wav
Peak level 99.5 %
Track quality 99.9 %
Test CRC 773ED053
Copy CRC 773ED053
Track not present in AccurateRip database
Copy OK
Track 3
Filename F:\CD Rips\W\Woe\Woe\[2008] A Spell for the Death Of Man [FLAC]\03 - Longing Is All That Will Remain.wav
Peak level 99.5 %
Track quality 100.0 %
Test CRC 28D4A007
Copy CRC 28D4A007
Track not present in AccurateRip database
Copy OK
Track 4
Filename F:\CD Rips\W\Woe\Woe\[2008] A Spell for the Death Of Man [FLAC]\04 - Condemned As Prey.wav
Peak level 99.5 %
Track quality 100.0 %
Test CRC 9AFA2A6C
Copy CRC 9AFA2A6C
Track not present in AccurateRip database
Copy OK
Track 5
Filename F:\CD Rips\W\Woe\Woe\[2008] A Spell for the Death Of Man [FLAC]\05 - I See No Civilization.wav
Peak level 99.5 %
Track quality 100.0 %
Test CRC 708DBC63
Copy CRC 708DBC63
Track not present in AccurateRip database
Copy OK
Track 6
Filename F:\CD Rips\W\Woe\Woe\[2008] A Spell for the Death Of Man [FLAC]\06 - Wake In Mourning.wav
Peak level 99.5 %
Track quality 99.9 %
Test CRC F4548CE0
Copy CRC F4548CE0
Track not present in AccurateRip database
Copy OK
Track 7
Filename F:\CD Rips\W\Woe\Woe\[2008] A Spell for the Death Of Man [FLAC]\07 - Memento Mori.wav
Peak level 99.5 %
Track quality 100.0 %
Test CRC C2CA1CEB
Copy CRC C2CA1CEB
Track not present in AccurateRip database
Copy OK
None of the tracks are present in the AccurateRip database
No errors occurred
End of status report
AUDIOCHECKER v2.0 beta (build 457) - by Dester - [email protected]
~~~~~~~~~~~~~~~~~~~~~~~~~~~~~~~~~~
Started at: среда, 02. 12. 2009. - 1:37.07
7 files found
1 -===- G:\Woe - 2008 - A Spell for the Death of Man\01 - Solitude.flac
Extracted successfully
Conclusion: this track is CDDA with probability 100%
Tempfile successfully deleted.
2 -===- G:\Woe - 2008 - A Spell for the Death of Man\02 - Alone With Our Failures.flac
Extracted successfully
Conclusion: this track is CDDA with probability 100%
Tempfile successfully deleted.
3 -===- G:\Woe - 2008 - A Spell for the Death of Man\03 - Longing Is All That Will Remain.flac
Extracted successfully
Conclusion: this track is CDDA with probability 100%
Tempfile successfully deleted.
4 -===- G:\Woe - 2008 - A Spell for the Death of Man\04 - Condemned As Prey.flac
Extracted successfully
Conclusion: this track is CDDA with probability 100%
Tempfile successfully deleted.
5 -===- G:\Woe - 2008 - A Spell for the Death of Man\05 - I See No Civilization.flac
Extracted successfully
Conclusion: this track is CDDA with probability 100%
Tempfile successfully deleted.
6 -===- G:\Woe - 2008 - A Spell for the Death of Man\06 - Wake In Mourning.flac
Extracted successfully
Conclusion: this track is CDDA with probability 100%
Tempfile successfully deleted.
7 -===- G:\Woe - 2008 - A Spell for the Death of Man\07 - Memento Mori.flac
Extracted successfully
Conclusion: this track is CDDA with probability 100%
Tempfile successfully deleted.
Finished at: среда, 02. 12. 2009. - 1:44.44 (operation time: 0:07.37)

[308.7 MB] Скачать / Download