(Black/Thrash Metal) Incriminated - The Promise of Worse to Come - 2005, (image+.cue), lossless - Скачать

Жанр: Black/Thrash Metal
Год издания: 2005
Издатель (лейбл): From Beyond Productions
Номер по каталогу: FBP 053
Аудиокодек: FLAC (*.flac)
Тип рипа: image+.cue
Битрейт аудио: lossless
Источник (релизер): By DrSatan MeTaLMaDNeSS
Наличие сканов в содержимом раздачи: нет
Треклист:
1. The Task Is Black
2. Born to Rule
3. Melting the Core
4. Morbid Utopia
5. The Age of Deserved Doom
6. Noble Are the Warriors
7. The Grand Downfall
8. In Sin
9. The Last Nightmare
10. We Will Be Remembered

torrent, песни, альбом, download, музыка, lossless, торрент, rock, высокое качество, скачать, mp3, soundtrack, композиции, бесплатно, cd, рок, альбом, метал, metal, дискография, трек

 Exact Audio Copy V0.99 prebeta 5 from 4. May 2009
EAC extraction logfile from 1. December 2012, 16:08
INCRIMINATED / The Promise of Worse to Come
Used drive : Optiarc DVD RW AD-7243S Adapter: 4 ID: 1
Read mode : Secure
Utilize accurate stream : Yes
Defeat audio cache : Yes
Make use of C2 pointers : No
Read offset correction : 48
Overread into Lead-In and Lead-Out : No
Fill up missing offset samples with silence : Yes
Delete leading and trailing silent blocks : No
Null samples used in CRC calculations : Yes
Used interface : Installed external ASPI interface
Used output format : User Defined Encoder
Selected bitrate : 40 kBit/s
Quality : High
Add ID3 tag : Yes
Command line compressor : C:\Program Files (x86)\Exact Audio Copy\FLAC.EXE
Additional command line options : -6 -V %s
TOC of the extracted CD
Track | Start | Length | Start sector | End sector
---------------------------------------------------------
1 | 0:00.00 | 2:53.05 | 0 | 12979
2 | 2:53.05 | 1:53.52 | 12980 | 21506
3 | 4:46.57 | 5:58.73 | 21507 | 48429
4 | 10:45.55 | 3:11.60 | 48430 | 62814
5 | 13:57.40 | 5:02.60 | 62815 | 85524
6 | 19:00.25 | 4:30.62 | 85525 | 105836
7 | 23:31.12 | 3:17.13 | 105837 | 120624
8 | 26:48.25 | 3:39.45 | 120625 | 137094
9 | 30:27.70 | 0:22.52 | 137095 | 138796
10 | 30:50.47 | 5:17.15 | 138797 | 162586
Range status and errors
Selected range
Filename E:\Rips\INCRIMINATED [2005] [CD] The Promise of Worse to Come [EAC-FLAC] By DrSatan [MeTaLMaDNeSS\INCRIMINATED - The Promise of Worse to Come.wav
Peak level 99.9 %
Range quality 100.0 %
Copy CRC 877C732D
Copy OK
No errors occurred
AccurateRip summary
Track 1 accurately ripped (confidence 1) [4E440DBA]
Track 2 accurately ripped (confidence 1) [41095B50]
Track 3 accurately ripped (confidence 1) [09DA5656]
Track 4 accurately ripped (confidence 1) [91C6ADF7]
Track 5 accurately ripped (confidence 1) [69E0D3E7]
Track 6 accurately ripped (confidence 1) [578A53C2]
Track 7 accurately ripped (confidence 1) [C1FC61C4]
Track 8 accurately ripped (confidence 1) [541ECD70]
Track 9 accurately ripped (confidence 1) [BDB0E0C4]
Track 10 accurately ripped (confidence 1) [39E8A8E1]
All tracks accurately ripped
End of status report

[226.2 MB] Скачать / Download