(Black / Thrash Metal) Sabbat - Sabbatical Visionslaught (Bonus CD) (Compillation) - 2011, FLAC (image+.cue), lossless - Скачать

Жанр: Black / Thrash Metal
Страна-производитель диска: США
Год издания диска: 2011
Издатель (лейбл): Hell Headbangers Records
Номер по каталогу: Отсутствует
Страна: Япония
Аудиокодек: FLAC (*.flac)
Тип рипа: image+.cue
Битрейт аудио: lossless
Продолжительность: 01:06:38
Источник (релизер): Собственный фирменный диск
Наличие сканов в содержимом раздачи: да
Треклист:
1. Disembody to the Abyss 04:47
2. Evil Nations 04:58
3. Unknown Massacra 03:10
4. Beyond the River 05:31
5. Charisma 06:05
6. Bowray Zamurai 06:14
7. Black Fire 04:16
8. Possessed Hammer 04:04
9. Envenom Into the Witch's Hole 05:01
10. Witchurch 04:15
11. Satan Bless You 03:33
12. Elixir de Vie 06:10
13. Hellfire 05:58 (Japanese version, first time on CD)
14. Reminiscent Bells 02:36

трек, скачать, download, высокое качество, метал, cd, дискография, музыка, rock, рок, альбом, композиции, песни, торрент, metal, lossless, бесплатно, mp3, torrent, альбом, soundtrack

 Exact Audio Copy V0.99 prebeta 5 from 4. May 2009
EAC extraction logfile from 27. July 2011, 16:35
SABBAT / Sabbatical Visionslaught (Bonus-CD)
Used drive : ASUS DRW-22B2S Adapter: 0 ID: 1
Read mode : Secure
Utilize accurate stream : Yes
Defeat audio cache : Yes
Make use of C2 pointers : No
Read offset correction : 6
Overread into Lead-In and Lead-Out : No
Fill up missing offset samples with silence : Yes
Delete leading and trailing silent blocks : No
Null samples used in CRC calculations : Yes
Used interface : Native Win32 interface for Win NT & 2000
Used output format : Internal WAV Routines
Sample format : 44.100 Hz; 16 Bit; Stereo
TOC of the extracted CD
Track | Start | Length | Start sector | End sector
---------------------------------------------------------
1 | 0:00.00 | 4:46.54 | 0 | 21503
2 | 4:46.54 | 4:57.58 | 21504 | 43836
3 | 9:44.37 | 3:10.24 | 43837 | 58110
4 | 12:54.61 | 5:30.72 | 58111 | 82932
5 | 18:25.58 | 6:05.03 | 82933 | 110310
6 | 24:30.61 | 6:14.07 | 110311 | 138367
7 | 30:44.68 | 4:16.16 | 138368 | 157583
8 | 35:01.09 | 4:03.41 | 157584 | 175849
9 | 39:04.50 | 5:00.66 | 175850 | 198415
10 | 44:05.41 | 4:14.52 | 198416 | 217517
11 | 48:20.18 | 3:33.14 | 217518 | 233506
12 | 51:53.32 | 6:09.51 | 233507 | 261232
13 | 58:03.08 | 5:57.50 | 261233 | 288057
14 | 64:00.58 | 2:36.18 | 288058 | 299775
Range status and errors
Selected range
Filename C:\SABBAT - 2011 - Sabbatical Visionslaught (Bonus-CD).wav
Peak level 100.0 %
Range quality 100.0 %
Test CRC 4F5EE434
Copy CRC 4F5EE434
Copy OK
No errors occurred
AccurateRip summary
Track 1 not present in database
Track 2 not present in database
Track 3 not present in database
Track 4 not present in database
Track 5 not present in database
Track 6 not present in database
Track 7 not present in database
Track 8 not present in database
Track 9 not present in database
Track 10 not present in database
Track 11 not present in database
Track 12 not present in database
Track 13 not present in database
Track 14 not present in database
None of the tracks are present in the AccurateRip database
End of status report
Бонус-диск к DVD, сборник лучших и редких песен

[469.8 MB] Скачать / Download