(Dark Ambient/Atmospheric Black Metal) Vinterriket - Gebirgshöhenstille - 2008, FLAC (image+.cue) lossless - Скачать

Жанр: Dark Ambient/Atmospheric Black Metal
Год издания диска: 2008
Страна: Germany
Лейбл: Displeased Records
Номер по каталогу: D-00159
Аудио кодек: FLAC (*.flac)
Тип рипа: image+.cue
Битрейт аудио: lossless
Продолжительность: 55:36
Источник: собственный рип
Наличие сканов в содержимом раздачи: да

Треклист:
01. Gipfelpforte 09:12
02. Im Dunkel des Höhenzuges 08:28
03. Felsmassiv 09:45
04. Bergesland 09:13
05. Steig in die Ungewißheit 09:45
06. Gebirgshöhenstille 09:11

soundtrack, metal, дискография, альбом, lossless, высокое качество, композиции, метал, альбом, музыка, cd, download, mp3, скачать, торрент, rock, песни, бесплатно, рок, трек, torrent

 Exact Audio Copy V0.99 prebeta 5 from 4. May 2009
EAC extraction logfile from 11. December 2010, 18:12
Vinterriket / Gebirgshohenstille
Used drive : ASUS DRW-22B2S Adapter: 0 ID: 1
Read mode : Secure
Utilize accurate stream : Yes
Defeat audio cache : Yes
Make use of C2 pointers : No
Read offset correction : 6
Overread into Lead-In and Lead-Out : No
Fill up missing offset samples with silence : Yes
Delete leading and trailing silent blocks : No
Null samples used in CRC calculations : Yes
Used interface : Installed external ASPI interface
Used output format : User Defined Encoder
Selected bitrate : 32 kBit/s
Quality : High
Add ID3 tag : No
Command line compressor : C:\Program Files\Exact Audio Copy\Flac\flac.exe
Additional command line options : -6 -V %s
TOC of the extracted CD
Track | Start | Length | Start sector | End sector
---------------------------------------------------------
1 | 0:00.00 | 9:12.18 | 0 | 41417
2 | 9:12.18 | 8:28.56 | 41418 | 79573
3 | 17:40.74 | 9:45.14 | 79574 | 123462
4 | 27:26.13 | 9:13.45 | 123463 | 164982
5 | 36:39.58 | 9:45.42 | 164983 | 208899
6 | 46:25.25 | 9:11.03 | 208900 | 250227
7 | 58:08.28 | 13:29.54 | 261628 | 322356
Range status and errors
Selected range
Filename D:\Lossless\Vinterriket - Gebirgshohenstille.wav
Peak level 97.7 %
Range quality 100.0 %
Test CRC EF70FC13
Copy CRC EF70FC13
Copy OK
No errors occurred
AccurateRip summary
Track 1 accurately ripped (confidence 1) [9EAB653D]
Track 2 accurately ripped (confidence 1) [F9C74278]
Track 3 accurately ripped (confidence 1) [B07CFD27]
Track 4 accurately ripped (confidence 1) [55A50561]
Track 5 accurately ripped (confidence 1) [22916D01]
Track 6 accurately ripped (confidence 1) [F8B49332]
All tracks accurately ripped
End of status report
 [Verification date: 12.12.2010 18:25:17]
[Disc ID: 000e5a97-004e9611-5910ca07]
CD-Extra data track length 13:29:54.
Track [ CRC ] Status
01 [9eab653d] (01/01) Accurately ripped
02 [f9c74278] (01/01) Accurately ripped
03 [b07cfd27] (01/01) Accurately ripped
04 [55a50561] (01/01) Accurately ripped
05 [22916d01] (01/01) Accurately ripped
06 [f8b49332] (01/01) Accurately ripped
Track [ CRC32 ] [W/O NULL] [ LOG ]
-- [EF70FC13] [4C065C6D] CRC32
01 [9BE6603C] [4F79618B]
02 [5404660E] [D1EF4698]
03 [EA68EF48] [06DC8B35]
04 [53A6A720] [7174B001]
05 [725AB531] [31A60101]
06 [CC21FB2F] [BAA76195]
 -----------------------------------------------
Statistics for: Vinterriket - Gebirgshohenstille.wav
Number of Samples: 147134064
-----------------------------------------------
left right
Peak value: -0.20 dB --- -0.20 dB
Avg RMS: -10.34 dB --- -10.43 dB
DR channel: 7.45 dB --- 7.60 dB
-----------------------------------------------
Official DR value: DR8
===============================================
Информация
 General
Complete name : D:\Lossless\Vinterriket - Gebirgshohenstille 2008\Video\vinterriket_gipfelpforte.mpg
Format : MPEG-PS
File size : 118 MiB
Duration : 9mn 34s
Overall bit rate : 1 723 Kbps
Video
ID : 224 (0xE0)
Format : MPEG Video
Format version : Version 2
Format profile : [email protected]
Format settings, BVOP : Yes
Format settings, Matrix : Default
Format settings, GOP : M=3, N=12
Duration : 9mn 34s
Bit rate mode : Variable
Bit rate : 1 369 Kbps
Nominal bit rate : 8 000 Kbps
Width : 640 pixels
Height : 480 pixels
Display aspect ratio : 4:3
Frame rate : 30.000 fps
Color space : YUV
Chroma subsampling : 4:2:0
Bit depth : 8 bits
Scan type : Interlaced
Scan order : Bottom Field First
Compression mode : Lossy
Bits/(Pixel*Frame) : 0.149
Stream size : 93.8 MiB (79%)
Audio
ID : 192 (0xC0)
Format : MPEG Audio
Format version : Version 1
Format profile : Layer 2
Duration : 9mn 34s
Bit rate mode : Constant
Bit rate : 320 Kbps
Channel(s) : 2 channels
Sampling rate : 48.0 KHz
Compression mode : Lossy
Stream size : 21.9 MiB (19%)
Скриншоты
 General
Complete name : D:\Lossless\Vinterriket - Gebirgshohenstille 2008\Video\vinterriket_gipfelpforte.mpg
Format : MPEG-PS
File size : 118 MiB
Duration : 9mn 34s
Overall bit rate : 1 723 Kbps
Video
ID : 224 (0xE0)
Format : MPEG Video
Format version : Version 2
Format profile : [email protected]
Format settings, BVOP : Yes
Format settings, Matrix : Default
Format settings, GOP : M=3, N=12
Duration : 9mn 34s
Bit rate mode : Variable
Bit rate : 1 369 Kbps
Nominal bit rate : 8 000 Kbps
Width : 640 pixels
Height : 480 pixels
Display aspect ratio : 4:3
Frame rate : 30.000 fps
Color space : YUV
Chroma subsampling : 4:2:0
Bit depth : 8 bits
Scan type : Interlaced
Scan order : Bottom Field First
Compression mode : Lossy
Bits/(Pixel*Frame) : 0.149
Stream size : 93.8 MiB (79%)
Audio
ID : 192 (0xC0)
Format : MPEG Audio
Format version : Version 1
Format profile : Layer 2
Duration : 9mn 34s
Bit rate mode : Constant
Bit rate : 320 Kbps
Channel(s) : 2 channels
Sampling rate : 48.0 KHz
Compression mode : Lossy
Stream size : 21.9 MiB (19%)

[459.6 MB] Скачать / Download