(depressive black) Svart - Vanära, Vanmakt Och Avsmak - 2009, FLAC (image+.cue), lossless - Скачать

Жанр: depressive black
Год выпуска диска: 2009
Производитель диска: Sweden (Frostscald Records)
Аудио кодек: FLAC
Тип рипа: image+.cue
Битрейт аудио: lossless
Продолжительность: 42:52
Трэклист:
1. Livet Faller Samman 09:10
2. In Endless Grief 05:02
3. Fördärvets Mästerverk 08:48
4. Då Glädjen Seglar Iväg 03:22
5. Vanära, Vanmakt och Avsmak 07:20
6. Medmänsklighet 08:48Оцифровано собственноручно с оригинального диска. Сканы в раздаче.

soundtrack, дискография, скачать, песни, музыка, cd, torrent, lossless, альбом, композиции, трек, download, высокое качество, бесплатно, рок, метал, торрент, metal, альбом, rock, mp3

Exact Audio Copy V0.99 prebeta 4 from 23. January 2008
Отчёт EAC об извлечении, выполненном 22. апреля 2010, 17:15
Svart / Vanara. Vanmakt Och Avsmak
Дисковод: Optiarc DVD RW AD-7191S Adapter: 3 ID: 0
Режим чтения : Достоверность
Использование точного потока : Да
Отключение кэша аудио : Да
Использование указателей C2 : Нет
Коррекция смещения при чтении : 6
Способность читать области Lead-in и Lead-out : Нет
Заполнение пропущенных сэмплов тишиной : Да
Удаление блоков с тишиной в начале и конце : Нет
При вычислениях CRC использовались нулевые сэмплы : Да
Интерфейс : Встроенный Win32-интерфейс для Win NT/2000
Выходной формат : Пользовательский кодировщик
Выбранный битрейт : 768 kBit/s
Качество : Высокий
Добавление ID3-тэга : Нет
Утилита сжатия : E:\Programs\Exact Audio Copy\FLAC\FLAC.EXE
Дополнительные параметры : -6 -V -T "ARTIST=%a" -T "TITLE=%t" -T "ALBUM=%g" -T "DATE=%y" -T "TRACKNUMBER=%n" -T "GENRE=%m" -T "COMMENT=%e" %s -o %d
TOC извлечённого CD
Трек | Старт | Длительность | Начальный сектор | Конечный сектор
---------------------------------------------------------------------
1 | 0:00.00 | 9:14.09 | 0 | 41558
2 | 9:14.09 | 5:06.57 | 41559 | 64565
3 | 14:20.66 | 8:52.07 | 64566 | 104472
4 | 23:12.73 | 3:26.58 | 104473 | 119980
5 | 26:39.56 | 7:24.09 | 119981 | 153289
6 | 34:03.65 | 8:48.21 | 153290 | 192910
Характеристики диапазона извлечения и сообщения об ошибках
Выбранный диапазон
Имя файла C:\Documents and Settings\maddriver\Рабочий стол\lossless\Svart - Vanara. Vanmakt Och Avsmak.wav
Пиковый уровень 100.0 %
Качество диапазона 99.9 %
CRC теста 89F509FF
CRC копии 89F509FF
Копирование... OK
Ошибок не произошло
AccurateRip: сводка
Трек 1 точное извлечение (доверие 3) [43646925]
Трек 2 точное извлечение (доверие 3) [13D5C490]
Трек 3 точное извлечение (доверие 3) [C419F57C]
Трек 4 точное извлечение (доверие 3) [8B3191AC]
Трек 5 точное извлечение (доверие 3) [6B8E3BD2]
Трек 6 точное извлечение (доверие 3) [1C2BF36D]
Все треки извлечены точно
Конец отчёта

[237.7 MB] Скачать / Download