(Experimental Black Metal) Kraken Duumvirate - From the Dying Soil to the Eternal Sea - 2008, FLAC (image+.cue), lossless - Скачать

Жанр: Experimental Black Metal
Носитель: EP
Страна-производитель диска (релиза): Finland
Год издания: 2008
Издатель (лейбл): Ahdistuksen Aihio Productions
Номер по каталогу: -
Страна исполнителя (группы): Finland
Аудиокодек: FLAC (*.flac)
Тип рипа: image+.cue
Битрейт аудио: lossless
Продолжительность: 20:34
Источник (релизер): Собственный CD
Наличие сканов в содержимом раздачи: да
Треклист:
1. I Descend 01:40
2. From The Dying Soil To The Eternal Sea 13:17
3. Devour Me 05:37

cd, бесплатно, скачать, рок, музыка, торрент, mp3, трек, высокое качество, метал, rock, альбом, композиции, soundtrack, дискография, альбом, download, torrent, lossless, metal, песни

 Exact Audio Copy V1.0 beta 3 from 29. August 2011
EAC extraction logfile from 21. January 2017, 14:50
Kraken Duumvirate / From The Dying Soil To The Eternal Sea EP
Used drive : ASUS BW-12B1LT Adapter: 4 ID: 0
Read mode : Secure
Utilize accurate stream : Yes
Defeat audio cache : Yes
Make use of C2 pointers : No
Read offset correction : 6
Overread into Lead-In and Lead-Out : No
Fill up missing offset samples with silence : Yes
Delete leading and trailing silent blocks : No
Null samples used in CRC calculations : Yes
Used interface : Native Win32 interface for Win NT & 2000
Used output format : Internal WAV Routines
Sample format : 44.100 Hz; 16 Bit; Stereo
TOC of the extracted CD
Track | Start | Length | Start sector | End sector
---------------------------------------------------------
1 | 0:00.00 | 1:39.50 | 0 | 7474
2 | 1:39.50 | 13:17.23 | 7475 | 67272
3 | 14:56.73 | 5:36.58 | 67273 | 92530
Range status and errors
Selected range
Filename D:\Temp\Kraken Duumvirate - From The Dying Soil To The Eternal Sea EP.wav
Peak level 96.6 %
Extraction speed 5.4 X
Range quality 99.9 %
Test CRC A679C828
Copy CRC A679C828
Copy OK
No errors occurred
AccurateRip summary
Track 1 accurately ripped (confidence 1) [1480D9FD] (AR v2)
Track 2 accurately ripped (confidence 1) [ED919281] (AR v2)
Track 3 accurately ripped (confidence 1) [6C312DB5] (AR v2)
All tracks accurately ripped
End of status report
---- CUETools DB Plugin V2.1.6
[CTDB TOCID: 5UwvURUtpTIbrdm._c8BdCB75.0-] found
Submit result: 5UwvURUtpTIbrdm._c8BdCB75.0- has been confirmed
Track | CTDB Status
1 | (2/2) Accurately ripped
2 | (2/2) Accurately ripped
3 | (2/2) Accurately ripped
==== Log checksum 8D91BB1457883628F389E6FC416786571B3EBB917E5D7AC4996ADF7004884138 ====
 REM GENRE "Experimental Black Metal"
REM DATE 2008
REM DISCID 1D04D103
REM COMMENT "ExactAudioCopy v1.0b3"
PERFORMER "Kraken Duumvirate"
TITLE "From The Dying Soil To The Eternal Sea EP"
FILE "Kraken Duumvirate - From The Dying Soil To The Eternal Sea EP.flac" WAVE
TRACK 01 AUDIO
TITLE "I Descend"
PERFORMER "Kraken Duumvirate"
FLAGS DCP
INDEX 01 00:00:00
TRACK 02 AUDIO
TITLE "From The Dying Soil To The Eternal Sea"
PERFORMER "Kraken Duumvirate"
FLAGS DCP
INDEX 01 01:39:50
TRACK 03 AUDIO
TITLE "Devour Me"
PERFORMER "Kraken Duumvirate"
FLAGS DCP
INDEX 01 14:56:73

[132.2 MB] Скачать / Download