(Folk | Black Metal | Acoustic Rock) Thrawsunblat - Great Brunswick Forest - 2018 FLAC (tracks+.cue), lossless - Скачать



Thrawsunblat

Great Brunswick Forest





• Жанр: Folk | Black Metal | Acoustic Rock
• Носитель: CD
• Год издания: 2018
• Страна исполнителя (группы): Canada
• Аудиокодек: FLAC (*.flac)
• Тип рипа: tracks+.cue
• Продолжительность: 00:33:13
• Источник (релизер): GM ®
• Наличие сканов: front

01. Green Man of East Canada (00:03:30)
02. Here I Am a Fortress (00:06:18)
03. Via Canadensis (00:03:05)
04. Song of the Summit (00:03:18)
05. Thus Spoke the Wind (00:04:19)
06. Great Brunswick Forest (00:03:55)
07. Singer of Ageless Times (00:04:30)
08. Dark Sky Sanctuary (00:04:14)

дискография, песни, альбом, альбом, бесплатно, mp3, рок, download, soundtrack, трек, metal, скачать, торрент, музыка, rock, lossless, torrent, cd, высокое качество, композиции, метал

 REM GENRE "Folk Metal"
REM DATE 2018
REM DISCID 6307C908
REM COMMENT "ExactAudioCopy v1.3"
PERFORMER "Thrawsunblat"
TITLE "Great Brunswick Forest"
REM COMPOSER ""
FILE "01 Green Man of East Canada.wav" WAVE
TRACK 01 AUDIO
TITLE "Green Man of East Canada"
PERFORMER "Thrawsunblat"
REM COMPOSER ""
ISRC CAC0S1800001
INDEX 01 00:00:00
TRACK 02 AUDIO
TITLE "Here I Am a Fortress"
PERFORMER "Thrawsunblat"
REM COMPOSER ""
ISRC CAC0S1800002
INDEX 00 03:30:29
FILE "02 Here I Am a Fortress.wav" WAVE
INDEX 01 00:00:00
TRACK 03 AUDIO
TITLE "Via Canadensis"
PERFORMER "Thrawsunblat"
REM COMPOSER ""
ISRC CAC0S1800003
INDEX 00 06:18:25
FILE "03 Via Canadensis.wav" WAVE
INDEX 01 00:00:00
TRACK 04 AUDIO
TITLE "Song of the Summit"
PERFORMER "Thrawsunblat"
REM COMPOSER ""
ISRC CAC0S1800004
INDEX 00 03:05:61
FILE "04 Song of the Summit.wav" WAVE
INDEX 01 00:00:00
TRACK 05 AUDIO
TITLE "Thus Spoke the Wind"
PERFORMER "Thrawsunblat"
REM COMPOSER ""
ISRC CAC0S1800005
INDEX 00 03:18:06
FILE "05 Thus Spoke the Wind.wav" WAVE
INDEX 01 00:00:00
TRACK 06 AUDIO
TITLE "Great Brunswick Forest"
PERFORMER "Thrawsunblat"
REM COMPOSER ""
ISRC CAC0S1800006
INDEX 00 04:19:53
FILE "06 Great Brunswick Forest.wav" WAVE
INDEX 01 00:00:00
TRACK 07 AUDIO
TITLE "Singer of Ageless Times"
PERFORMER "Thrawsunblat"
REM COMPOSER ""
ISRC CAC0S1800007
INDEX 00 03:55:16
FILE "07 Singer of Ageless Times.wav" WAVE
INDEX 01 00:00:00
TRACK 08 AUDIO
TITLE "Dark Sky Sanctuary"
PERFORMER "Thrawsunblat"
REM COMPOSER ""
ISRC CAC0S1800008
INDEX 00 04:29:41
FILE "08 Dark Sky Sanctuary.wav" WAVE
INDEX 01 00:00:00
 Exact Audio Copy V1.3 from 2. September 2016
EAC extraction logfile from 3. November 2018, 16:40
Thrawsunblat / Great Brunswick Forest
Used drive : ASUS SDRW-08D2S-U Adapter: 1 ID: 0
Read mode : Secure
Utilize accurate stream : Yes
Defeat audio cache : Yes
Make use of C2 pointers : No
Read offset correction : 6
Overread into Lead-In and Lead-Out : No
Fill up missing offset samples with silence : Yes
Delete leading and trailing silent blocks : No
Null samples used in CRC calculations : Yes
Used interface : Native Win32 interface for Win NT & 2000
Gap handling : Appended to previous track
Used output format : User Defined Encoder
Selected bitrate : 1024 kBit/s
Quality : High
Add ID3 tag : No
Command line compressor : C:\Program Files (x86)\Exact Audio Copy\FLAC\FLAC.EXE
Additional command line options : -8 -e -p -V -T "ARTIST=%artist%" -T "TITLE=%title%" -T "ALBUM=%albumtitle%" -T "DATE=%year%" -T "TRACKNUMBER=%tracknr%" -T "GENRE=%genre%" -T "PERFORMER=%albuminterpret%" -T "COMPOSER=%composer%" %haslyrics%--tag-from-file=LYRICS="%lyricsfile%"%haslyrics% -T "ALBUMARTIST=%albumartist%" -T "DISCNUMBER=%cdnumber%" -T "TOTALDISCS=%totalcds%" -T "TOTALTRACKS=%numtracks%" -T "COMMENT=%comment%" %source% -o %dest%
TOC of the extracted CD
Track | Start | Length | Start sector | End sector
---------------------------------------------------------
1 | 0:00.00 | 3:30.56 | 0 | 15805
2 | 3:30.56 | 6:18.26 | 15806 | 44181
3 | 9:49.07 | 3:05.74 | 44182 | 58130
4 | 12:55.06 | 3:18.32 | 58131 | 73012
5 | 16:13.38 | 4:19.54 | 73013 | 92491
6 | 20:33.17 | 3:55.17 | 92492 | 110133
7 | 24:28.34 | 4:30.01 | 110134 | 130384
8 | 28:58.35 | 4:14.43 | 130385 | 149477
Track 1
Filename C:\Music\Thrawsunblat\[2018] Great Brunswick Forest [CD] [FLAC]\01 Green Man of East Canada.wav
Pre-gap length 0:00:02.00
Peak level 98.8 %
Extraction speed 1.1 X
Track quality 100.0 %
Test CRC 4A95279D
Copy CRC 4A95279D
Track not present in AccurateRip database
Copy OK
Track 2
Filename C:\Music\Thrawsunblat\[2018] Great Brunswick Forest [CD] [FLAC]\02 Here I Am a Fortress.wav
Pre-gap length 0:00:00.36
Peak level 98.8 %
Extraction speed 1.4 X
Track quality 100.0 %
Test CRC 460D5408
Copy CRC 460D5408
Track not present in AccurateRip database
Copy OK
Track 3
Filename C:\Music\Thrawsunblat\[2018] Great Brunswick Forest [CD] [FLAC]\03 Via Canadensis.wav
Pre-gap length 0:00:00.01
Peak level 98.8 %
Extraction speed 1.4 X
Track quality 100.0 %
Test CRC 87D0695D
Copy CRC 87D0695D
Track not present in AccurateRip database
Copy OK
Track 4
Filename C:\Music\Thrawsunblat\[2018] Great Brunswick Forest [CD] [FLAC]\04 Song of the Summit.wav
Pre-gap length 0:00:00.17
Peak level 98.8 %
Extraction speed 1.4 X
Track quality 100.0 %
Test CRC 99C6B46E
Copy CRC 99C6B46E
Track not present in AccurateRip database
Copy OK
Track 5
Filename C:\Music\Thrawsunblat\[2018] Great Brunswick Forest [CD] [FLAC]\05 Thus Spoke the Wind.wav
Pre-gap length 0:00:00.34
Peak level 98.8 %
Extraction speed 1.6 X
Track quality 100.0 %
Test CRC EEE2FE15
Copy CRC EEE2FE15
Track not present in AccurateRip database
Copy OK
Track 6
Filename C:\Music\Thrawsunblat\[2018] Great Brunswick Forest [CD] [FLAC]\06 Great Brunswick Forest.wav
Pre-gap length 0:00:00.01
Peak level 98.8 %
Extraction speed 1.7 X
Track quality 100.0 %
Test CRC BFF87E7A
Copy CRC BFF87E7A
Track not present in AccurateRip database
Copy OK
Track 7
Filename C:\Music\Thrawsunblat\[2018] Great Brunswick Forest [CD] [FLAC]\07 Singer of Ageless Times.wav
Pre-gap length 0:00:00.01
Peak level 98.8 %
Extraction speed 1.8 X
Track quality 100.0 %
Test CRC E8254F7A
Copy CRC E8254F7A
Track not present in AccurateRip database
Copy OK
Track 8
Filename C:\Music\Thrawsunblat\[2018] Great Brunswick Forest [CD] [FLAC]\08 Dark Sky Sanctuary.wav
Pre-gap length 0:00:00.46
Peak level 98.8 %
Extraction speed 1.8 X
Track quality 100.0 %
Test CRC 170BF8B5
Copy CRC 170BF8B5
Track not present in AccurateRip database
Copy OK
None of the tracks are present in the AccurateRip database
No errors occurred
End of status report
---- CUETools DB Plugin V2.1.6
[CTDB TOCID: QqFBDrpyQ.1XqQEGl4Pi0p0guV8-] found
Submit result: QqFBDrpyQ.1XqQEGl4Pi0p0guV8- has been confirmed
Track | CTDB Status
1 | (1/1) Accurately ripped
2 | (1/1) Accurately ripped
3 | (1/1) Accurately ripped
4 | (1/1) Accurately ripped
5 | (1/1) Accurately ripped
6 | (1/1) Accurately ripped
7 | (1/1) Accurately ripped
8 | (1/1) Accurately ripped
==== Log checksum 2727B62ED6681E0D14AB6D60EBECA00EE3763B9C49DD450136AC8B71FCDE1F1A ====

[220.9 MB] Скачать / Download