(Industrial Black Metal) Diabolicum - The Dark Blood Rising (The Hatecrowned Retaliation) (Digipak) - 2001, FLAC (image+.cue), lossless - Скачать



Жанр: Industrial Black Metal
Страна-производитель диска: Italy
Год издания: 2001
Лейбл: Code666 Records
Номер по каталогу: code005
Страна: Sweden
Аудиокодек: FLAC (*.flac)
Тип рипа: image+.cue,Test & Copy
Битрейт аудио: lossless
Продолжительность: 45:00
Источник: Original CD
Полиграфия: да, 600dpi

Треклист:
01. March Of The Misanthrope (02:18)
02. Heavens Die (06:16)
03. ... (00:12)
04. The Hatecrowned Retaliation (06:38)
05. The War Tide (All Out Genocide) (06:07)
06. The Dark Blood Rising (04:01)
07. Sound The Horns Of Reprisal (03:56)
08. Bloodspawn (04:04)
09. The Song Of Suffering (Eleven Blades Of Darkness) (04:26)
10. Into The Dementia (06:37)
11. The Nemesis Speaks... (00:24)
Об альбоме:
Приложение для PC и Mac запускается только с CD, но ничего путного там нет кроме ссылки на клип который якобы можно заценить на сайте Code666, где оный отсутствует
Diabolicum ‎- Ia Pazuzu (The Abyss of the Shadows), (2015, 2CD Leather Box)

рок, бесплатно, soundtrack, дискография, metal, трек, метал, rock, скачать, песни, композиции, альбом, lossless, альбом, cd, торрент, torrent, высокое качество, download, музыка, mp3

 Exact Audio Copy V1.0 beta 3 from 29. August 2011
EAC extraction logfile from 19. July 2013, 21:04
Diabolicum / The Dark Blood Rising (The Hatecrowned Retaliation)
Used drive : PIONEER DVD-RW DVR-112D Adapter: 0 ID: 0
Read mode : Secure
Utilize accurate stream : Yes
Defeat audio cache : Yes
Make use of C2 pointers : No
Read offset correction : 48
Overread into Lead-In and Lead-Out : No
Fill up missing offset samples with silence : Yes
Delete leading and trailing silent blocks : No
Null samples used in CRC calculations : Yes
Used interface : Native Win32 interface for Win NT & 2000
Used output format : User Defined Encoder
Selected bitrate : 128 kBit/s
Quality : High
Add ID3 tag : No
Command line compressor : C:\Program Files (x86)\Exact Audio Copy\FLAC\FLAC.EXE
Additional command line options : -8 -V -T "ARTIST=%artist%" -T "TITLE=%title%" -T "ALBUM=%albumtitle%" -T "DATE=%year%" -T "TRACKNUMBER=%tracknr%" -T "GENRE=%genre%" -T "COMMENT=EAC FLAC -8" %source%
TOC of the extracted CD
Track | Start | Length | Start sector | End sector
---------------------------------------------------------
1 | 0:00.00 | 2:18.37 | 0 | 10386
2 | 2:18.37 | 6:16.35 | 10387 | 38621
3 | 8:34.72 | 0:12.30 | 38622 | 39551
4 | 8:47.27 | 6:38.00 | 39552 | 69401
5 | 15:25.27 | 6:06.48 | 69402 | 96899
6 | 21:32.00 | 4:00.62 | 96900 | 114961
7 | 25:32.62 | 3:56.05 | 114962 | 132666
8 | 29:28.67 | 4:03.70 | 132667 | 150961
9 | 33:32.62 | 4:25.70 | 150962 | 170906
10 | 37:58.57 | 6:37.28 | 170907 | 200709
11 | 44:36.10 | 0:23.55 | 200710 | 202489
12 | 47:31.65 | 11:37.49 | 213890 | 266213
Range status and errors
Selected range
Filename H:\Diabolicum - The Dark Blood Rising (The Hatecrowned Retaliation)\Diabolicum - The Dark Blood Rising (The Hatecrowned Retaliation).wav
Peak level 100.0 %
Extraction speed 6.8 X
Range quality 100.0 %
Test CRC 68CAD318
Copy CRC 68CAD318
Copy OK
No errors occurred
AccurateRip summary
Track 1 accurately ripped (confidence 2) [35EC0836] (AR v1)
Track 2 accurately ripped (confidence 2) [267BF7D4] (AR v1)
Track 3 accurately ripped (confidence 2) [B7FB9598] (AR v1)
Track 4 accurately ripped (confidence 2) [FADCCFB5] (AR v1)
Track 5 accurately ripped (confidence 2) [35AFB591] (AR v1)
Track 6 accurately ripped (confidence 2) [884C1033] (AR v1)
Track 7 accurately ripped (confidence 2) [A46CF6F8] (AR v1)
Track 8 accurately ripped (confidence 2) [8BB7DA83] (AR v1)
Track 9 accurately ripped (confidence 2) [1D63291C] (AR v1)
Track 10 accurately ripped (confidence 2) [604DD324] (AR v1)
Track 11 accurately ripped (confidence 2) [2F1016BD] (AR v1)
All tracks accurately ripped
End of status report
---- CUETools DB Plugin V2.1.5
[CTDB TOCID: duqFE8kzzepwh8h3VtrsIlsWRPc-] found
Submit result: duqFE8kzzepwh8h3VtrsIlsWRPc- has been confirmed
Track | CTDB Status
1 | (2/2) Accurately ripped
2 | (2/2) Accurately ripped
3 | (2/2) Accurately ripped
4 | (2/2) Accurately ripped
5 | (2/2) Accurately ripped
6 | (2/2) Accurately ripped
7 | (2/2) Accurately ripped
8 | (2/2) Accurately ripped
9 | (2/2) Accurately ripped
10 | (2/2) Accurately ripped
11 | (2/2) Accurately ripped
==== Log checksum 917CAA3EBC03128ACB15377401865300043A6BE364C8C0323F6A0ECB1B484BFF ====

[376.4 MB] Скачать / Download