(Melodic Black/Gothic Metal) The Sequel - Down To Earth ... - 1998, FLAC (image+.cue) lossless - Скачать

The Sequel - Down To Earth ... [Demo]Жанр: Melodic Black/Gothic Metal
Страна-производитель диска: Germany
Год издания диска: 1998
Издатель (лейбл): Self Released
Страна: Germany
Аудио кодек: FLAC (*.flac)
Тип рипа: image+.cue (test&copy)
Битрейт аудио: lossless
Продолжительность: 14:52
Источник (релизер): Original CD
Наличие сканов в содержимом раздачи: да
Треклист:
01. The Wanderer (05:51)
02. Down To Earth (04:42)
03. Shallow Ground (04:19)

метал, торрент, metal, музыка, cd, рок, mp3, lossless, бесплатно, torrent, композиции, альбом, download, альбом, rock, soundtrack, высокое качество, песни, дискография, скачать, трек

 Exact Audio Copy V0.99 prebeta 4 from 23. January 2008
Отчёт EAC об извлечении, выполненном 11. октября 2010, 18:18
The Sequel / Down To Earth ...
Дисковод: TEAC DV-W522GMA Adapter: 0 ID: 0
Режим чтения : Достоверность
Использование точного потока : Да
Отключение кэша аудио : Да
Использование указателей C2 : Нет
Коррекция смещения при чтении : 6
Способность читать области Lead-in и Lead-out : Нет
Заполнение пропущенных сэмплов тишиной : Да
Удаление блоков с тишиной в начале и конце : Нет
При вычислениях CRC использовались нулевые сэмплы : Да
Интерфейс : Встроенный Win32-интерфейс для Win NT/2000
Выходной формат : Пользовательский кодировщик
Выбранный битрейт : 32 kBit/s
Качество : Высокий
Добавление ID3-тэга : Нет
Утилита сжатия : C:\Program Files\Exact Audio Copy\Flac\flac.exe
Дополнительные параметры : -6 -V %s
TOC извлечённого CD
Трек | Старт | Длительность | Начальный сектор | Конечный сектор
---------------------------------------------------------------------
1 | 0:00.00 | 5:50.70 | 0 | 26319
2 | 5:50.70 | 4:42.30 | 26320 | 47499
3 | 10:33.25 | 4:18.62 | 47500 | 66911
Характеристики диапазона извлечения и сообщения об ошибках
Выбранный диапазон
Имя файла F:\EAC\Sautumnblaze\The Sequel - Down To Earth ....wav
Пиковый уровень 99.9 %
Качество диапазона 100.0 %
CRC теста 3BEB6971
CRC копии 3BEB6971
Копирование... OK
Ошибок не произошло
AccurateRip: сводка
Трек 1 нет в базе данных
Трек 2 нет в базе данных
Трек 3 нет в базе данных
Ни одного трека нет в базе AccurateRip
Конец отчёта
Christian - drums
Stephan - guitar
Henning - bass
Dennis - keyboards
Sven - vocals
Neboijsa - guitar
Recorded at Nighlight Tonstudios Hamburg in July '98.
Engineered & mixed by The Sequel.

[109.4 MB] Скачать / Download