(Melodic Black, Melodic Death) Shylmagoghnar - Emergence - 2014, FLAC (image+.cue), lossless - Скачать

Жанр: Melodic Black, Melodic Death
Носитель: CD
Страна-производитель диска: Netherlands
Год издания: 2014
Издатель (лейбл): Self-Release
Номер по каталогу: NIM711
Страна: Netherlands
Аудиокодек: FLAC (*.flac)
Тип рипа: image+.cue
Битрейт аудио: lossless
Продолжительность: 51:32
Источник (релизер): Собственный диск
Наличие сканов в содержимом раздачи: нет
Треклист:
01. I Am The Abyss
02. Emergence
03. Edin In Ashes
04. This World Shall Fall
05. Squandered Paradise
06. Eternal Forest
07. The Cosmic Tide
08. A New Dawn
09. The Sun No Longer

метал, скачать, metal, торрент, mp3, download, бесплатно, soundtrack, музыка, torrent, cd, альбом, lossless, песни, трек, композиции, высокое качество, альбом, дискография, rock, рок

 Exact Audio Copy V1.0 beta 3 from 29. August 2011
Отчёт EAC об извлечении, выполненном 14. апреля 2014, 18:14
Shylmagoghnar / Emergence
Дисковод: TSSTcorpCDDVDW SH-S223C Adapter: 0 ID: 0
Режим чтения : Достоверность
Использование точного потока : Да
Отключение кэша аудио : Да
Использование указателей C2 : Нет
Коррекция смещения при чтении : 697
Способность читать области Lead-in и Lead-out : Нет
Заполнение пропущенных сэмплов тишиной : Да
Удаление блоков с тишиной в начале и конце : Нет
При вычислениях CRC использовались нулевые сэмплы : Да
Интерфейс : Установленный внешний ASPI-интерфейс
Выходной формат : Пользовательский кодировщик
Выбранный битрейт : 896 kBit/s
Качество : Высокий
Добавление ID3-тега : Нет
Утилита сжатия : C:\Program Files (x86)\Exact Audio Copy\EACPortable\App\EAC\FLAC\flac.exe
Дополнительные параметры : -6 -V -T "ARTIST=%artist%" -T "TITLE=%title%" -T "ALBUM=%albumtitle%" -T "DATE=%year%" -T "TRACKNUMBER=%tracknr%" -T "GENRE=%genre%" -T "COMMENT=%comment%" %hascover%--picture="%coverfile%"%hascover% %source% -o %dest%
TOC извлечённого CD
Трек | Старт | Длительность | Начальный сектор | Конечный сектор
---------------------------------------------------------------------
1 | 0:00.00 | 8:50.00 | 0 | 39749
2 | 8:50.00 | 6:27.38 | 39750 | 68812
3 | 15:17.38 | 6:19.00 | 68813 | 97237
4 | 21:36.38 | 3:28.00 | 97238 | 112837
5 | 25:04.38 | 4:24.38 | 112838 | 132675
6 | 29:29.01 | 4:22.38 | 132676 | 152363
7 | 33:51.39 | 6:37.10 | 152364 | 182148
8 | 40:28.49 | 6:37.28 | 182149 | 211951
9 | 47:06.02 | 4:26.03 | 211952 | 231904
Характеристики диапазона извлечения и сообщения об ошибках
Выбранный диапазон
Имя файла D:\Shylmagoghnar - Emergence.wav
Пиковый уровень 98.8 %
Скорость извлечения 7.8 X
Качество диапазона 100.0 %
CRC теста ABD63376
CRC копии ABD63376
Копирование... OK
Ошибок не произошло
AccurateRip: сводка
Трек 1 отсутствует в базе данных
Трек 2 отсутствует в базе данных
Трек 3 отсутствует в базе данных
Трек 4 отсутствует в базе данных
Трек 5 отсутствует в базе данных
Трек 6 отсутствует в базе данных
Трек 7 отсутствует в базе данных
Трек 8 отсутствует в базе данных
Трек 9 отсутствует в базе данных
Ни одного трека нет в базе AccurateRip
Конец отчёта
==== Контрольная сумма отчёта 1873AA95DA2A27F4C22B8228749028CB6494E010D085844D630DAADE72BB20A0 ====
 -----------------------
DON'T MODIFY THIS FILE
-----------------------
PERFORMER: auCDtect Task Manager, ver. 1.6.0 RC1 build 1.6.0.1
Copyright (c) 2008-2010 y-soft. All rights reserved
http://y-soft.org
ANALYZER: auCDtect: CD records authenticity detector, version 0.8.2
Copyright (c) 2004 Oleg Berngardt. All rights reserved.
Copyright (c) 2004 Alexander Djourik. All rights reserved.
FILE: Shylmagoghnar - Emergence.flac
Size: 384976994 Hash: 0B787FE3F457277A23D37154EDD9474C Accuracy: -m0
Conclusion: CDDA 100%
Signature: 93802C2C685182D89690A2E79E6588497975DE8D

[369.4 MB] Скачать / Download