(Melodic Black Metal) Black Swan - When The Angels Of Twilight Dance - 1998, FLAC (image+.cue) lossless - Скачать

Жанр: Melodic Black Metal
Страна-производитель диска: Finland
Год издания диска: 1998
Издатель (лейбл): Mastervox Records
Номер по каталогу: MVXCD3
Страна: Finland
Аудио кодек: FLAC (*.flac)
Тип рипа: image+.cue (Test & Copy)
Битрейт аудио: lossless
Продолжительность: 39.07
Источник (релизер): Original CD (Digipak), Собственный рип
Наличие сканов в содержимом раздачи: да
Треклист:
01. The Tavastian Parade
02. Under Cloak and Hood
03. Into the Sea of Sorrow
04. Autumn In Eden
05. The Withering Flower of Life
06. Mist
07. To Behold the Sky of Flames
08. When the Angels of Twilight Dance

Отличный раритетный альбом... Рекомендую!

высокое качество, рок, песни, трек, lossless, torrent, метал, metal, дискография, торрент, soundtrack, бесплатно, download, композиции, альбом, музыка, rock, скачать, альбом, mp3, cd

 Exact Audio Copy V1.0 beta 2 from 29. April 2011
EAC extraction logfile from 21. July 2011, 21:27
Black Swan / When The Angels Of Twilight Dance
Used drive : Optiarc DVD RW AD-7203S Adapter: 1 ID: 0
Read mode : Secure
Utilize accurate stream : Yes
Defeat audio cache : Yes
Make use of C2 pointers : No
Read offset correction : 48
Overread into Lead-In and Lead-Out : No
Fill up missing offset samples with silence : Yes
Delete leading and trailing silent blocks : No
Null samples used in CRC calculations : Yes
Used interface : Native Win32 interface for Win NT & 2000
Used output format : User Defined Encoder
Selected bitrate : 1024 kBit/s
Quality : High
Add ID3 tag : No
Command line compressor : C:\Program Files (x86)\Exact Audio Copy\Flac\flac.exe
Additional command line options : -7 -V %source%
TOC of the extracted CD
Track | Start | Length | Start sector | End sector
---------------------------------------------------------
1 | 0:00.00 | 7:39.45 | 0 | 34469
2 | 7:39.45 | 4:53.37 | 34470 | 56481
3 | 12:33.07 | 5:33.56 | 56482 | 81512
4 | 18:06.63 | 5:52.57 | 81513 | 107969
5 | 23:59.45 | 4:59.17 | 107970 | 130411
6 | 28:58.62 | 2:19.63 | 130412 | 140899
7 | 31:18.50 | 7:48.62 | 140900 | 176061
8 | 39:07.37 | 7:56.07 | 176062 | 211768
Range status and errors
Selected range
Filename F:\Paralaksator\Black Swan - When The Angels Of Twilight Dance.wav
Peak level 96.6 %
Extraction speed 3.7 X
Range quality 99.9 %
Test CRC 66219F1D
Copy CRC 66219F1D
Copy OK
No errors occurred
AccurateRip summary
Track 1 not present in database
Track 2 not present in database
Track 3 not present in database
Track 4 not present in database
Track 5 not present in database
Track 6 not present in database
Track 7 not present in database
Track 8 not present in database
None of the tracks are present in the AccurateRip database
End of status report
==== Log checksum EBE5C08FC9E377442BAC1CDB5089476220A7FB7FEDE451349027D60592B5A99E ====

[388.4 MB] Скачать / Download