(Melodic Black Metal) Ferndal (Eis, ex-Enid) - Ferndal - 2017, FLAC (image+.cue), lossless - Скачать

Жанр: Melodic Black Metal
Носитель: CD
Страна-производитель диска (релиза): Austria
Год издания: 2017
Издатель (лейбл): Einheit Produktionen
Номер по каталогу: EP 062
Страна исполнителя (группы): Germany
Аудиокодек: FLAC (*.flac)
Тип рипа: image+.cue
Битрейт аудио: lossless
Продолжительность: 46:13
Источник (релизер): My CD
Наличие сканов в содержимом раздачи: да
Треклист:
01. Ouverture 02:50
02. Ferndal 09:07
03. Ungelebtes Leben 09:23
04. Klavierquintett In G-Moll "Arntor, Ein Krieger" 06:46
05. In Die Freiheit 08:12
06. Ein Später Gast 07:13
07. Coda 02:39

Материал предназначен для ознакомления!

песни, музыка, бесплатно, альбом, lossless, торрент, download, высокое качество, дискография, soundtrack, mp3, torrent, rock, metal, рок, скачать, трек, альбом, cd, метал, композиции

 Exact Audio Copy V1.1 from 23. June 2015
EAC extraction logfile from 20. May 2017, 17:45
Ferndal / Ferndal
Used drive : HP DVD Writer 1170d Adapter: 1 ID: 1
Read mode : Secure
Utilize accurate stream : Yes
Defeat audio cache : Yes
Make use of C2 pointers : No
Read offset correction : 6
Overread into Lead-In and Lead-Out : No
Fill up missing offset samples with silence : Yes
Delete leading and trailing silent blocks : No
Null samples used in CRC calculations : Yes
Used interface : Native Win32 interface for Win NT & 2000
Used output format : User Defined Encoder
Selected bitrate : 1024 kBit/s
Quality : High
Add ID3 tag : No
Command line compressor : C:\Program Files (x86)\Exact Audio Copy\Flac\flac.exe
Additional command line options : -V -8 -T "Date=%year%" -T "Genre=%genre%" %source%
TOC of the extracted CD
Track | Start | Length | Start sector | End sector
---------------------------------------------------------
1 | 0:00.00 | 2:50.66 | 0 | 12815
2 | 2:50.66 | 9:07.40 | 12816 | 53880
3 | 11:58.31 | 9:23.25 | 53881 | 96130
4 | 21:21.56 | 6:46.02 | 96131 | 126582
5 | 28:07.58 | 8:12.24 | 126583 | 163506
6 | 36:20.07 | 7:13.29 | 163507 | 196010
7 | 43:33.36 | 2:39.69 | 196011 | 208004
Range status and errors
Selected range
Filename C:\EAC\Ungern666\Ferndal - Ferndal.wav
Peak level 97.6 %
Extraction speed 6.8 X
Range quality 100.0 %
Test CRC 3D42C5AE
Copy CRC 3D42C5AE
Copy OK
No errors occurred
AccurateRip summary
Track 1 not present in database
Track 2 not present in database
Track 3 not present in database
Track 4 not present in database
Track 5 not present in database
Track 6 not present in database
Track 7 not present in database
None of the tracks are present in the AccurateRip database
End of status report
---- CUETools DB Plugin V2.1.6
[CTDB TOCID: IuD.qXIuJs91ipfDko4c2FwSZnE-] found
Submit result: IuD.qXIuJs91ipfDko4c2FwSZnE- has been confirmed
Track | CTDB Status
1 | (1/1) Accurately ripped
2 | (1/1) Accurately ripped
3 | (1/1) Accurately ripped
4 | (1/1) Accurately ripped
5 | (1/1) Accurately ripped
6 | (1/1) Accurately ripped
7 | (1/1) Accurately ripped
==== Log checksum 84F5B7823E58C1C67842BFC52740D799A14EC3F2C1A94C5C1615F3D151A8DCC2 ====
Sorathiel - Bass, Vocals
Lestaya - Cello
Alboîn (Eïs, Eismalsott, ex-Inarborat, ex-Geïst, ex-Enid, ex-Funeral Procession) - Drums
Abarus (Eïs, Eismalsott, ex-Out of Mind) - Guitars
Sethras - Guitars

[352.4 MB] Скачать / Download