(Melodic Black Metal) The Heretic - Fallen From Heaven - 1999, FLAC (image + .cue), lossless - Скачать

Страна: Spain (Albacete)
Жанр: Melodic Black Metal
Год выпуска: 1999
Формат: FLAC (image + .cue)
Битрейт аудио: lossless
Продолжительность: 39:56
Трэклист:
1. The 'I' 03:28
2. False Idol 04:50
3. Earth Of Untruth 04:31
4. Human Nature 04:41
5. Nocturnal Guest 04:43
6. No Answer 04:53
7. Nightflight 04:02
8. Frontal Collision 03:45
9. Global Suicide Century 05:16

песни, torrent, альбом, торрент, mp3, альбом, lossless, metal, download, бесплатно, скачать, трек, cd, soundtrack, музыка, композиции, высокое качество, rock, метал, рок, дискография

Exact Audio Copy V0.99 prebeta 4 from 23. January 2008
Отчёт EAC об извлечении, выполненном 13. мая 2008, 18:54
The Heretic / Fallen From Heaven
Дисковод: _NEC DVD_RW ND-4550A Adapter: 1 ID: 0
Режим чтения : Достоверность
Использование точного потока : Да
Отключение кэша аудио : Да
Использование указателей C2 : Нет
Коррекция смещения при чтении : 48
Способность читать области Lead-in и Lead-out : Нет
Заполнение пропущенных сэмплов тишиной : Да
Удаление блоков с тишиной в начале и конце : Нет
При вычислениях CRC использовались нулевые сэмплы : Нет
Интерфейс : Встроенный Win32-интерфейс для Win NT/2000
Выходной формат : Пользовательский кодировщик
Выбранный битрейт : 1024 kBit/s
Качество : Высокий
Добавление ID3-тэга : Нет
Утилита сжатия : G:\Stuff\Exact Audio Copy\Flac\flac.exe
Дополнительные параметры : --best -T "ARTIST=%a" -T "TITLE=%t" -T "ALBUM=%g" -T "DATE=%y" -T "TRACKNUMBER=%n" -T "GENRE=%m" %s
TOC извлечённого CD
Трек | Старт | Длительность | Начальный сектор | Конечный сектор
---------------------------------------------------------------------
1 | 0:00.00 | 3:28.11 | 0 | 15610
2 | 3:28.11 | 4:50.36 | 15611 | 37396
3 | 8:18.47 | 4:31.08 | 37397 | 57729
4 | 12:49.55 | 4:41.00 | 57730 | 78804
5 | 17:30.55 | 4:43.64 | 78805 | 100093
6 | 22:14.44 | 4:53.53 | 100094 | 122121
7 | 27:08.22 | 4:02.20 | 122122 | 140291
8 | 31:10.42 | 3:45.66 | 140292 | 157232
9 | 34:56.33 | 5:16.04 | 157233 | 180936
Характеристики диапазона извлечения и сообщения об ошибках
Выбранный диапазон
Имя файла G:\MP3\The Heretic - 1999 - Fallen From Heaven\The Heretic - 1999 - Fallen From Heaven.wav
Пиковый уровень 100.0 %
Качество диапазона 100.0 %
CRC копии A6F2EB2C
Копирование... OK
Ошибок не произошло
Конец отчёта

[284.7 MB] Скачать / Download