(Misanthropic Black Metal) Borgne - Royaume Des Ombres - 2012, FLAC (image+.cue), lossless - Скачать

Жанр:Misanthropic Black Metal
Страна-производитель диска:Switzerland
Год издания диска:2012
Издатель (лейбл):Sepulchral Productions
Номер по каталогу:SP027
Страна:Canada
Аудиокодек:FLAC (*.flac)
Тип рипа:image+.cue
Битрейт аудио:lossless
Продолжительность:58:25
Источник (релизер):Original CD
Наличие сканов в содержимом раздачи:да
Треклист:
01. Fall of the Lost Souls 04:57
02. Suffer As I Paid My Grave 11:09
03. In The Realm of the Living I'm Dead 11:48
04. Only The Dead Can Be Heard 08:53
05. All These Screams Through Me 13:17
06. The Last Things You Will See 08:21

You’re right, let me wait for nothing
Let me spend my time
When you feel the smell of wax
You will know that, you will know why
I go wandering on the other side
In the realm of the living I’m dead
And on the other side I would be myself
Why fighting the truth when you are persuaded otherwise

download, песни, torrent, metal, композиции, музыка, трек, дискография, торрент, скачать, высокое качество, soundtrack, бесплатно, lossless, рок, mp3, метал, cd, альбом, альбом, rock

 Exact Audio Copy V1.0 beta 3 from 29. August 2011
EAC extraction logfile from 28. November 2012, 21:06
Borgne / Royaume Des Ombres
Used drive : HL-DT-STDVDRAM GT20N Adapter: 0 ID: 1
Read mode : Secure
Utilize accurate stream : Yes
Defeat audio cache : Yes
Make use of C2 pointers : No
Read offset correction : 667
Overread into Lead-In and Lead-Out : No
Fill up missing offset samples with silence : Yes
Delete leading and trailing silent blocks : No
Null samples used in CRC calculations : Yes
Used interface : Installed external ASPI interface
Used output format : User Defined Encoder
Selected bitrate : 128 kBit/s
Quality : High
Add ID3 tag : No
Command line compressor : C:\Program Files\Exact Audio Copy\Flac\flac.exe
Additional command line options : -V -8 -T "Date=%year%" -T "Genre=%genre%" %source%
TOC of the extracted CD
Track | Start | Length | Start sector | End sector
---------------------------------------------------------
1 | 0:00.00 | 4:57.44 | 0 | 22318
2 | 4:57.44 | 11:08.37 | 22319 | 72455
3 | 16:06.06 | 11:48.16 | 72456 | 125571
4 | 27:54.22 | 8:53.24 | 125572 | 165570
5 | 36:47.46 | 13:16.45 | 165571 | 225315
6 | 50:04.16 | 8:20.67 | 225316 | 262882
Range status and errors
Selected range
Filename E:\sothis718\Borgne - Royaume Des Ombres.wav
Peak level 96.6 %
Extraction speed 2.1 X
Range quality 100.0 %
Test CRC BBB18928
Copy CRC BBB18928
Copy OK
No errors occurred
AccurateRip summary
Track 1 not present in database
Track 2 not present in database
Track 3 not present in database
Track 4 not present in database
Track 5 not present in database
Track 6 not present in database
None of the tracks are present in the AccurateRip database
End of status report
---- CUETools DB Plugin V2.1.4
[CTDB TOCID: nLXxBQKsVxXh19tF4gSeUL9Z0e0-] found
Submit result: nLXxBQKsVxXh19tF4gSeUL9Z0e0- has been confirmed
Track | CTDB Status
1 | (1/1) Accurately ripped
2 | (1/1) Accurately ripped
3 | (1/1) Accurately ripped
4 | (1/1) Accurately ripped
5 | (1/1) Accurately ripped
6 | (1/1) Accurately ripped
==== Log checksum 957F019DC9A4898D3EAD05252F51C160B86945B6DF4FE2EB096877374C82B260 ====
Ormenos - Vocals, guitars, bass, drums, keyboards, programming

[457.2 MB] Скачать / Download