(Pagan Black Metal) Macabre Omen - Gods Of War - At War - 2015, FLAC (tracks+.cue), lossless - Скачать

Жанр: Pagan Black Metal
Год издания: 2015
Страна исполнителя (группы): Greece
Аудиокодек: FLAC (*.flac)
Тип рипа: tracks+.cue
Битрейт аудио: lossless
Продолжительность: 1:01:18
Источник (релизер): WEB
Наличие сканов в содержимом раздачи: нет
Треклист:
01. I See, The Sea!(07:42)
02. Gods Of War - At War(08:49)
03. Man Of 300 Voices(08:52)
04. Hellenes Do Not Fight Like Heroes, Heroes Fight Like Hellenes(07:23)
05. From Son To Father(08:28)
06. Rhodian Pride, Lindian Might(05:34)
07. Alexandros - Ode A'(07:53)
08. Alexandros - Ode B' (06:33)

torrent, высокое качество, рок, metal, download, альбом, торрент, музыка, rock, скачать, дискография, метал, cd, песни, soundtrack, альбом, трек, lossless, композиции, mp3, бесплатно

 Exact Audio Copy V1.0 beta 3 from 29. August 2011
EAC extraction logfile from 22. April 2015, 21:45
Macabre Omen / Gods of War - At War
Used drive : PHILIPS SPD6105T Adapter: 2 ID: 1
Read mode : Secure
Utilize accurate stream : Yes
Defeat audio cache : Yes
Make use of C2 pointers : No
Read offset correction : 6
Overread into Lead-In and Lead-Out : No
Fill up missing offset samples with silence : Yes
Delete leading and trailing silent blocks : No
Null samples used in CRC calculations : Yes
Used interface : Native Win32 interface for Win NT & 2000
Gap handling : Appended to previous track
Used output format : User Defined Encoder
Selected bitrate : 1024 kBit/s
Quality : High
Add ID3 tag : No
Command line compressor : C:\Program Files\Exact Audio Copy\Flac\flac.exe
Additional command line options : -8 -V -T "ARTIST=%artist%" -T "TITLE=%title%" -T "ALBUM=%albumtitle%" -T "DATE=%year%" -T "TRACKNUMBER=%tracknr%" -T "GENRE=%genre%" -T "PERFORMER=%albuminterpret%" -T "COMPOSER=%composer%" %haslyrics%--tag-from-file=LYRICS="%lyricsfile%"%haslyrics% -T "ALBUMARTIST=%albumartist%" -T "DISCNUMBER=%cdnumber%" -T "TOTALDISCS=%totalcds%" -T "TOTALTRACKS=%numtracks%" -T "COMMENT=%comment%" %source% -o %dest%
TOC of the extracted CD
Track | Start | Length | Start sector | End sector
---------------------------------------------------------
1 | 0:00.00 | 7:42.57 | 0 | 34706
2 | 7:42.57 | 8:49.67 | 34707 | 74448
3 | 16:32.49 | 8:52.24 | 74449 | 114372
4 | 25:24.73 | 7:23.41 | 114373 | 147638
5 | 32:48.39 | 8:28.00 | 147639 | 185738
6 | 41:16.39 | 5:34.57 | 185739 | 210845
7 | 46:51.21 | 7:53.00 | 210846 | 246320
8 | 54:44.21 | 6:33.64 | 246321 | 275859
Track 1
Filename K:\EAC\Macabre Omen - Gods of War - At War (2015)[VAN146][FLAC]\01 - I See, the Sea!.wav
Pre-gap length 0:00:02.00
Peak level 98.8 %
Extraction speed 5.2 X
Track quality 100.0 %
Test CRC 9002DB49
Copy CRC 9002DB49
Accurately ripped (confidence 1) [D053C804] (AR v2)
Copy OK
Track 2
Filename K:\EAC\Macabre Omen - Gods of War - At War (2015)[VAN146][FLAC]\02 - Gods of War - At War.wav
Peak level 96.6 %
Extraction speed 5.6 X
Track quality 99.9 %
Test CRC EDB694BD
Copy CRC EDB694BD
Accurately ripped (confidence 1) [3342C1F2] (AR v2)
Copy OK
Track 3
Filename K:\EAC\Macabre Omen - Gods of War - At War (2015)[VAN146][FLAC]\03 - Man of 300 Voices.wav
Peak level 98.8 %
Extraction speed 7.1 X
Track quality 100.0 %
Test CRC 28E8A29F
Copy CRC 28E8A29F
Accurately ripped (confidence 1) [9EE9C3D8] (AR v2)
Copy OK
Track 4
Filename K:\EAC\Macabre Omen - Gods of War - At War (2015)[VAN146][FLAC]\04 - Hellenes Do Not Fight Like Heroes, Heroes Fight Like Hellenes.wav
Peak level 96.6 %
Extraction speed 6.8 X
Track quality 99.9 %
Test CRC 89EE6659
Copy CRC 89EE6659
Accurately ripped (confidence 1) [A4C6B555] (AR v2)
Copy OK
Track 5
Filename K:\EAC\Macabre Omen - Gods of War - At War (2015)[VAN146][FLAC]\05 - From Son to Father.wav
Peak level 96.6 %
Extraction speed 8.3 X
Track quality 100.0 %
Test CRC DA3A49D6
Copy CRC DA3A49D6
Accurately ripped (confidence 1) [5BD08B0A] (AR v2)
Copy OK
Track 6
Filename K:\EAC\Macabre Omen - Gods of War - At War (2015)[VAN146][FLAC]\06 - Rhodian Pride, Lindian Might.wav
Peak level 99.0 %
Extraction speed 8.5 X
Track quality 100.0 %
Test CRC 0E3A186B
Copy CRC 0E3A186B
Accurately ripped (confidence 1) [2F3D7E66] (AR v2)
Copy OK
Track 7
Filename K:\EAC\Macabre Omen - Gods of War - At War (2015)[VAN146][FLAC]\07 - Alexandros - Ode A'.wav
Peak level 96.6 %
Extraction speed 9.2 X
Track quality 100.0 %
Test CRC 160C1BA1
Copy CRC 160C1BA1
Accurately ripped (confidence 1) [18015641] (AR v2)
Copy OK
Track 8
Filename K:\EAC\Macabre Omen - Gods of War - At War (2015)[VAN146][FLAC]\08 - Alexandros - Ode B'.wav
Peak level 96.6 %
Extraction speed 9.5 X
Track quality 100.0 %
Test CRC C715326B
Copy CRC C715326B
Accurately ripped (confidence 1) [D68690DB] (AR v2)
Copy OK
All tracks accurately ripped
No errors occurred
End of status report
---- CUETools DB Plugin V2.1.3
[CTDB TOCID: UAnupr9c4XZDuaBQUdHky4brVJM-] found, Submit result: UAnupr9c4XZDuaBQUdHky4brVJM- has been confirmed
[f2f71265] (3/3) Accurately ripped
==== Log checksum 86222D27FFE6009F0FC5FB23AFCEEF06A801748D2C893AB3889523814447D5C9 ====
 REM GENRE Metal
REM DATE 2015
REM DISCID 7B0E5E08
REM COMMENT "ExactAudioCopy v1.0b3"
FILE "01 - I See, the Sea!.wav" WAVE
TRACK 01 AUDIO
INDEX 01 00:00:00
FILE "02 - Gods of War - At War.wav" WAVE
TRACK 02 AUDIO
INDEX 01 00:00:00
FILE "03 - Man of 300 Voices.wav" WAVE
TRACK 03 AUDIO
INDEX 01 00:00:00
FILE "04 - Hellenes Do Not Fight Like Heroes, Heroes Fight Like Hellenes.wav" WAVE
TRACK 04 AUDIO
INDEX 01 00:00:00
FILE "05 - From Son to Father.wav" WAVE
TRACK 05 AUDIO
INDEX 01 00:00:00
FILE "06 - Rhodian Pride, Lindian Might.wav" WAVE
TRACK 06 AUDIO
INDEX 01 00:00:00
FILE "07 - Alexandros - Ode A'.wav" WAVE
TRACK 07 AUDIO
INDEX 01 00:00:00
FILE "08 - Alexandros - Ode B'.wav" WAVE
TRACK 08 AUDIO
INDEX 01 00:00:00

[430.8 MB] Скачать / Download