(Raw Black Metal) Irae - To Those Who Stand... Evil Prevails - 2012, FLAC (image+.cue), lossless - Скачать

Жанр: Raw Black Metal
Носитель: CD
Страна-производитель диска (релиза): Чехия
Год издания: 2012
Издатель (лейбл): Infinite Darkness Productions
Номер по каталогу: IDP 001
Страна исполнителя (группы): Португалия
Аудиокодек: FLAC (*.flac)
Тип рипа: image+.cue
Битрейт аудио: lossless
Продолжительность: 46:34
Источник (релизер): Original CD
Наличие сканов в содержимом раздачи: да
Треклист:
I. Opposer
II. Honora Patrum
III. With Plagues Upon Earth
IV. ...For I Am Unholy
V. In The Veins Of Satan
VI. Untitled I
VII. Untitled II
VIII. Untitled III
IX. Untitled IV
X. Untitled V
XI. Untitled VI
XII. Untitled VIIДоп. информация: CD limited to 300 hand-numbered copies.

рок, metal, rock, дискография, альбом, torrent, песни, высокое качество, soundtrack, lossless, метал, трек, mp3, cd, бесплатно, скачать, альбом, музыка, торрент, download, композиции

 Exact Audio Copy V1.0 beta 4 from 7. December 2014
EAC extraction logfile from 1. March 2015, 11:27
Irae / To Those Who Stand... Evil Prevails
Used drive : hp CDDVDW TS-H653R Adapter: 1 ID: 0
Read mode : Secure
Utilize accurate stream : Yes
Defeat audio cache : Yes
Make use of C2 pointers : No
Read offset correction : 6
Overread into Lead-In and Lead-Out : No
Fill up missing offset samples with silence : Yes
Delete leading and trailing silent blocks : No
Null samples used in CRC calculations : Yes
Used interface : Installed external ASPI interface
Used output format : User Defined Encoder
Selected bitrate : 128 kBit/s
Quality : High
Add ID3 tag : No
Command line compressor : C:\Exact Audio Copy 1.0 beta 4 Portable\EAC_Portable_1.0_beta_4_Multilingual\App\EAC\FLAC\flac.exe
Additional command line options : -5 -T "artist=%artist%" -T "title=%title%" -T "album=%albumtitle%" -T "date=%year%" -T "tracknumber=%tracknr%" -T "genre=%genre%" %source%
TOC of the extracted CD
Track | Start | Length | Start sector | End sector
---------------------------------------------------------
1 | 0:00.00 | 4:10.59 | 0 | 18808
2 | 4:10.59 | 4:49.00 | 18809 | 40483
3 | 8:59.59 | 4:22.05 | 40484 | 60138
4 | 13:21.64 | 4:57.33 | 60139 | 82446
5 | 18:19.22 | 3:42.43 | 82447 | 99139
6 | 22:01.65 | 0:56.35 | 99140 | 103374
7 | 22:58.25 | 4:28.21 | 103375 | 123495
8 | 27:26.46 | 3:41.33 | 123496 | 140103
9 | 31:08.04 | 1:19.42 | 140104 | 146070
10 | 32:27.46 | 5:38.58 | 146071 | 171478
11 | 38:06.29 | 6:10.10 | 171479 | 199238
12 | 44:16.39 | 2:17.22 | 199239 | 209535
Range status and errors
Selected range
Filename C:\EAC\sadomator_666\Irae - To Those Who Stand... Evil Prevails.wav
Peak level 22.7 %
Extraction speed 7.1 X
Range quality 99.9 %
Test CRC E13713C7
Copy CRC E13713C7
Copy OK
No errors occurred
AccurateRip summary
Track 1 not present in database
Track 2 not present in database
Track 3 not present in database
Track 4 not present in database
Track 5 not present in database
Track 6 not present in database
Track 7 not present in database
Track 8 not present in database
Track 9 not present in database
Track 10 not present in database
Track 11 not present in database
Track 12 not present in database
None of the tracks are present in the AccurateRip database
End of status report
==== Log checksum 73AB21B8A9E36D4B6C3C28B477A6835B9C05FA51DF3357BC1CB67A4AA48707D8 ====
 REM GENRE "Black Metal"
REM DATE 2012
REM DISCID 9B0AE90C
REM COMMENT "ExactAudioCopy v1.0b4"
PERFORMER "Irae"
TITLE "To Those Who Stand... Evil Prevails"
FILE "Irae - To Those Who Stand... Evil Prevails.flac" WAVE
TRACK 01 AUDIO
TITLE "Opposer"
PERFORMER "Irae"
INDEX 01 00:00:00
TRACK 02 AUDIO
TITLE "Honora Patrum"
PERFORMER "Irae"
INDEX 00 04:08:59
INDEX 01 04:10:59
TRACK 03 AUDIO
TITLE "With Plagues Upon Earth"
PERFORMER "Irae"
INDEX 00 08:57:59
INDEX 01 08:59:59
TRACK 04 AUDIO
TITLE "...For I Am Unholy"
PERFORMER "Irae"
INDEX 00 13:19:64
INDEX 01 13:21:64
TRACK 05 AUDIO
TITLE "In The Veins Of Satan"
PERFORMER "Irae"
INDEX 00 18:17:22
INDEX 01 18:19:22
TRACK 06 AUDIO
TITLE "Untitled I"
PERFORMER "Irae"
INDEX 00 21:59:65
INDEX 01 22:01:65
TRACK 07 AUDIO
TITLE "Untitled II"
PERFORMER "Irae"
INDEX 00 22:56:25
INDEX 01 22:58:25
TRACK 08 AUDIO
TITLE "Untitled III"
PERFORMER "Irae"
INDEX 00 27:24:46
INDEX 01 27:26:46
TRACK 09 AUDIO
TITLE "Untitled IV"
PERFORMER "Irae"
INDEX 00 31:06:04
INDEX 01 31:08:04
TRACK 10 AUDIO
TITLE "Untitled V"
PERFORMER "Irae"
INDEX 00 32:25:46
INDEX 01 32:27:46
TRACK 11 AUDIO
TITLE "Untitled VI"
PERFORMER "Irae"
INDEX 00 38:04:29
INDEX 01 38:06:29
TRACK 12 AUDIO
TITLE "Untitled VII"
PERFORMER "Irae"
INDEX 00 44:14:39
INDEX 01 44:16:39
Vulturius - Everything (Decayed, Morte Incandescente, Scum Liquor, Thy Black Blood, Murmurio (Live), Flamma Aeterna, Flagellum Dei, Storm Legion, Corpus Christii (Live), Göatfukk (Live), Inthyflesh (Live))

[297.9 MB] Скачать / Download