(Raw Black Metal) Disjecta - Da Marmorea Lapide Ombrati - 2006, FLAC (image+.cue) lossless - Скачать

Жанр: Raw Black Metal
Страна-производитель диска: Italy
Год издания диска: 2006
Издатель (лейбл): Vomitium Niger Productions
Номер по каталогу: VNP007
Страна: Italy
Аудио кодек: FLAC (*.flac)
Тип рипа: image+.cue
Битрейт аудио: lossless
Продолжительность: 33:38
Источник (релизер): собственный рип
Наличие сканов в содержимом раздачи: да
Треклист:
1. When Pestilence Was Born From A Rib Of Evil 05:59
2. Sunset Of Humankind 05:09
3. The Eternal Souls Live In Fire 04:40
4. Repel The White Light Creation 05:21
5. Inno A Nerone 12:29

lossless, mp3, песни, торрент, музыка, cd, torrent, download, трек, рок, композиции, альбом, альбом, rock, бесплатно, soundtrack, дискография, метал, скачать, metal, высокое качество

 Exact Audio Copy V1.0 beta 1 from 15. November 2010
EAC extraction logfile from 23. May 2011, 1:15
Disjecta / Da Marmorea Lapide Ombrati
Used drive : Optiarc BD ROM BC-5500S Adapter: 0 ID: 1
Read mode : Secure
Utilize accurate stream : Yes
Defeat audio cache : Yes
Make use of C2 pointers : No
Read offset correction : 48
Overread into Lead-In and Lead-Out : No
Fill up missing offset samples with silence : Yes
Delete leading and trailing silent blocks : No
Null samples used in CRC calculations : Yes
Used interface : Installed external ASPI interface
Used output format : User Defined Encoder
Selected bitrate : 768 kBit/s
Quality : High
Add ID3 tag : No
Command line compressor : C:\Program Files\Exact Audio Copy\FLAC\FLAC.EXE
Additional command line options : -8 -V %s
TOC of the extracted CD
Track | Start | Length | Start sector | End sector
---------------------------------------------------------
1 | 0:00.00 | 5:58.44 | 0 | 26893
2 | 5:58.44 | 5:09.31 | 26894 | 50099
3 | 11:08.00 | 4:40.19 | 50100 | 71118
4 | 15:48.19 | 5:21.16 | 71119 | 95209
5 | 21:09.35 | 12:28.40 | 95210 | 151349
Range status and errors
Selected range
Filename D:\iiinah\Disjecta 2006 Da Marmorea Lapide Ombrati\Disjecta - Da Marmorea Lapide Ombrati.wav
Peak level 100.0 %
Extraction speed 1.3 X
Range quality 100.0 %
Test CRC AAE142D7
Copy CRC AAE142D7
Copy OK
No errors occurred
AccurateRip summary
Track 1 not present in database
Track 2 not present in database
Track 3 not present in database
Track 4 not present in database
Track 5 not present in database
None of the tracks are present in the AccurateRip database
End of status report
==== Log checksum 6528BD9E713679FFA6513B5597025A03DFF681EE10121A13E403514BE7C150BD ====

[267.7 MB] Скачать / Download