(Raw Black Metal) Krieg - Kill Yourself Or Someone You Love - 2002 (ep), FLAC (image+.cue), lossless - Скачать

KRIEG
Kill Yourself Or Someone You Love

Жанр: Raw Black Metal
Год издания: 2002
Издатель (лейбл): Breath of Night Records
Номер по каталогу: TERROR-01
Страна: USA
Аудиокодек: FLAC (*.flac)
Тип рипа: image+.cue
Битрейт аудио: lossless
Продолжительность: 24:58
Источник (релизер): MEIN KD
Наличие сканов в содержимом раздачи: да
Треклист:
1. Coldwind Flame 04:59
2. Blackash Snowfall 03:39
3. Great Black Death 03:26
4. Deviant 03:38
5. Destruction Ritual 04:40
6. End of Time 02:31
7. Satanic Blood (Von cover) 02:01

метал, download, lossless, музыка, rock, дискография, soundtrack, композиции, скачать, альбом, трек, альбом, metal, бесплатно, torrent, торрент, cd, высокое качество, песни, mp3, рок

 Exact Audio Copy V0.99 prebeta 5 from 4. May 2009
Отчёт EAC об извлечении, выполненном 17. октября 2012, 20:09
KRIEG / Kill Yourself Or Someone You Love
Дисковод: ASUS DRW-24B3ST Adapter: 5 ID: 0
Режим чтения : Достоверность
Использование точного потока : Да
Отключение кэша аудио : Да
Использование указателей C2 : Нет
Коррекция смещения при чтении : 6
Способность читать области Lead-in и Lead-out : Нет
Заполнение пропущенных сэмплов тишиной : Да
Удаление блоков с тишиной в начале и конце : Нет
При вычислениях CRC использовались нулевые сэмплы : Да
Интерфейс : Установленный внешний ASPI-интерфейс
Выходной формат : Пользовательский кодировщик
Выбранный битрейт : 768 kBit/s
Качество : Высокий
Добавление ID3-тэга : Нет
Утилита сжатия : C:\Program Files\Exact Audio Copy\FLAC\FLAC.EXE
Дополнительные параметры : -6 -V -T "ARTIST=%a" -T "TITLE=%t" -T "ALBUM=%g" -T "DATE=%y" -T "TRACKNUMBER=%n" -T "GENRE=%m" -T "COMMENT=%e" %s -o %d
TOC извлечённого CD
Трек | Старт | Длительность | Начальный сектор | Конечный сектор
---------------------------------------------------------------------
1 | 0:00.00 | 4:59.61 | 0 | 22485
2 | 4:59.61 | 3:39.59 | 22486 | 38969
3 | 8:39.45 | 3:26.50 | 38970 | 54469
4 | 12:06.20 | 3:38.26 | 54470 | 70845
5 | 15:44.46 | 4:40.38 | 70846 | 91883
6 | 20:25.09 | 2:31.44 | 91884 | 103252
7 | 22:56.53 | 2:01.15 | 103253 | 112342
Характеристики диапазона извлечения и сообщения об ошибках
Выбранный диапазон
Имя файла G:\KIILLSS\МАЙЕ\KRIEG - Kill Yourself Or Someone You Love.wav
Пиковый уровень 96.1 %
Качество диапазона 100.0 %
CRC теста A93E7C57
CRC копии A93E7C57
Копирование... OK
Ошибок не произошло
AccurateRip: сводка
Трек 1 точное извлечение (доверие 2) [8D63AFB5]
Трек 2 точное извлечение (доверие 2) [1B406AA2]
Трек 3 точное извлечение (доверие 2) [400823DC]
Трек 4 точное извлечение (доверие 2) [ADC2D923]
Трек 5 точное извлечение (доверие 2) [6AF07811]
Трек 6 точное извлечение (доверие 2) [163D11AB]
Трек 7 точное извлечение (доверие 2) [4167882B]
Все треки извлечены точно
Конец отчёта

[172.8 MB] Скачать / Download