(Raw Black Metal) Nokturne / Noctifer - Wargod Domination (Split) - 2007, APE (image+.cue), lossless - Скачать


Жанр: Raw Black Metal
Год: 2007
Страна: US / Italy
Лейбл: Baphomet/Red Stream
Аудио кодек: APE
Тип рипа: image+.cue
Битрейт аудио: lossless
Продолжительность: 48:01
Трэклист:
Nokturne
1. Oltre La Morte (Intro) 01:00
2. Wargod Domination 04:02
3. Knights Of The Wartorch Attack 05:06
4. Nachtfuhrers Moon 04:34
5. No Surrender 05:46
6. Oltre La Morte 04:21
Noctifer (Ita)
7. Victory, Supreme Judge 06:21
8. Ferro Ignique 07:32
9. Glorification Of The Past 03:45
10. Legio Noctifer 05:34

rock, метал, торрент, lossless, песни, рок, альбом, бесплатно, скачать, mp3, композиции, download, музыка, альбом, metal, трек, cd, высокое качество, дискография, torrent, soundtrack

 Exact Audio Copy V0.99 prebeta 4 from 23. January 2008
EAC extraction logfile from 7. January 2010, 23:31
Nokturne / Noctifer / Wargod Domination
Used drive : PIONEER DVD-RW DVR-112D Adapter: 0 ID: 2
Read mode : Secure
Utilize accurate stream : Yes
Defeat audio cache : Yes
Make use of C2 pointers : No
Read offset correction : 48
Overread into Lead-In and Lead-Out : No
Fill up missing offset samples with silence : Yes
Delete leading and trailing silent blocks : No
Null samples used in CRC calculations : Yes
Used interface : Installed external ASPI interface
Used output format : Monkey's Audio Lossless Encoder
Selected bitrate : Extra High Lossless Compression
Quality : High
Add ID3 tag : No
Command line compressor : C:\Program Files\Monkey's Audio\Monkey's Audio.exe
TOC of the extracted CD
Track | Start | Length | Start sector | End sector
---------------------------------------------------------
1 | 0:00.00 | 1:00.04 | 0 | 4503
2 | 1:00.04 | 4:02.23 | 4504 | 22676
3 | 5:02.27 | 5:06.43 | 22677 | 45669
4 | 10:08.70 | 4:34.42 | 45670 | 66261
5 | 14:43.37 | 5:46.02 | 66262 | 92213
6 | 20:29.39 | 4:21.71 | 92214 | 111859
7 | 24:51.35 | 6:21.06 | 111860 | 140440
8 | 31:12.41 | 7:32.46 | 140441 | 174386
9 | 38:45.12 | 3:45.44 | 174387 | 191305
10 | 42:30.56 | 5:34.72 | 191306 | 216427
Range status and errors
Selected range
Filename C:\Music\Audio\!!!\Nokturne ][ Noctifer - 2007 - Wargod Domination (Split)\Nokturne Noctifer - Wargod Domination.wav
Peak level 100.0 %
Range quality 100.0 %
Test CRC 98A26C5C
Copy CRC 98A26C5C
Copy OK
No errors occurred
AccurateRip summary
Track 1 not present in database
Track 2 not present in database
Track 3 not present in database
Track 4 not present in database
Track 5 not present in database
Track 6 not present in database
Track 7 not present in database
Track 8 not present in database
Track 9 not present in database
Track 10 not present in database
None of the tracks are present in the AccurateRip database
End of status report

[342.7 MB] Скачать / Download