(Raw Black Metal) Riddle of Meander & Skaur - Walking the Sinister Path... - 2007, APE (image+.cue), lossless - Скачать

Жанр: Raw Black Metal
Год выпуска диска: 2007
Производитель диска: Nigra Mors [NM017]
Аудио кодек: APE
Тип рипа: image+.cue
Битрейт аудио: lossless
Продолжительность: 58' 19''
Тип рипа: image+.cue, Test&Copy
Источник: Pro CDR

Riddle of Meander
1. Conquering Night Wind
2. Superior Black Flame
3. Transylvanian Hunger (Darkthrone cover)
4. Ancient Apocalypse

Skaur

5. En Hymne til Dauden
6. Farvel Verden
7. Du Svake sjel som Vandrer nun Jord
8. Kirssmannhaagjen I
9. Kirssmannhaagjen II

Доп. информация: limited to222/86copies

lossless, песни, торрент, высокое качество, дискография, трек, download, mp3, метал, бесплатно, скачать, альбом, cd, soundtrack, metal, рок, альбом, rock, композиции, музыка, torrent

 Exact Audio Copy V0.99 prebeta 5 from 4. May 2009
EAC extraction logfile from 9. May 2010, 21:20
Various / Walking the Sinister Path...
Used drive : SONY CD-RW CRX320E Adapter: 1 ID: 0
Read mode : Secure
Utilize accurate stream : Yes
Defeat audio cache : Yes
Make use of C2 pointers : No
Read offset correction : 6
Overread into Lead-In and Lead-Out : No
Fill up missing offset samples with silence : Yes
Delete leading and trailing silent blocks : No
Null samples used in CRC calculations : Yes
Used interface : Installed external ASPI interface
Used output format : Monkey's Audio Lossless Encoder
Selected bitrate : Fast Lossless Compression
Quality : High
Add ID3 tag : No
Command line compressor : C:\Program Files\Monkey's Audio\MAC.exe
TOC of the extracted CD
Track | Start | Length | Start sector | End sector
---------------------------------------------------------
1 | 0:00.00 | 6:13.27 | 0 | 28001
2 | 6:13.27 | 8:06.29 | 28002 | 64480
3 | 14:19.56 | 5:53.64 | 64481 | 91019
4 | 20:13.45 | 5:55.20 | 91020 | 117664
5 | 26:08.65 | 17:06.29 | 117665 | 194643
6 | 43:15.19 | 3:11.52 | 194644 | 209020
7 | 46:26.71 | 7:01.62 | 209021 | 240657
8 | 53:28.58 | 1:35.59 | 240658 | 247841
9 | 55:04.42 | 3:14.46 | 247842 | 262437
Range status and errors
Selected range
Filename D:\dedho\Riddle of Meander & Skaur - Walking the Sinister Path\Various - Walking the Sinister Path....wav
Peak level 100.0 %
Range quality 99.9 %
Test CRC 49A4776E
Copy CRC 49A4776E
Copy OK
No errors occurred
AccurateRip summary
Track 1 not present in database
Track 2 not present in database
Track 3 not present in database
Track 4 not present in database
Track 5 not present in database
Track 6 not present in database
Track 7 not present in database
Track 8 not present in database
Track 9 not present in database
None of the tracks are present in the AccurateRip database
End of status report

[345 MB] Скачать / Download