(Raw Black Metal) Tundra - In Cold Dimness - 2003 (re 2006), FLAC (image+.cue), lossless - Скачать

TUNDRA
In Cold Dimness

Жанр: Raw Black Metal
Год издания: 2003 (re 2006)
Издатель (лейбл): Eclipse Productions (NMB Records)
Номер по каталогу: NMBR-002
Страна: Italy
Аудиокодек: FLAC (*.flac)
Тип рипа: image+.cue
Битрейт аудио: lossless
Продолжительность: 26:59
Источник (релизер): IL MIO KD
Наличие сканов в содержимом раздачи: да
Треклист:
1. Intro/To Build a Reign 06:02
2. Total Human Collapse 04:54
3. Silent Fields 06:30
4. Christianity Has Failed 05:55
5. In Cold Dimness 03:34

metal, mp3, soundtrack, торрент, песни, torrent, скачать, высокое качество, бесплатно, рок, музыка, метал, композиции, дискография, трек, альбом, download, rock, cd, альбом, lossless

 Exact Audio Copy V0.99 prebeta 5 from 4. May 2009
Отчёт EAC об извлечении, выполненном 23. октября 2012, 19:05
TUNDRA / In Cold Dimness
Дисковод: ASUS DRW-24B3ST Adapter: 5 ID: 0
Режим чтения : Достоверность
Использование точного потока : Да
Отключение кэша аудио : Да
Использование указателей C2 : Нет
Коррекция смещения при чтении : 6
Способность читать области Lead-in и Lead-out : Нет
Заполнение пропущенных сэмплов тишиной : Да
Удаление блоков с тишиной в начале и конце : Нет
При вычислениях CRC использовались нулевые сэмплы : Да
Интерфейс : Установленный внешний ASPI-интерфейс
Выходной формат : Пользовательский кодировщик
Выбранный битрейт : 768 kBit/s
Качество : Высокий
Добавление ID3-тэга : Нет
Утилита сжатия : C:\Program Files\Exact Audio Copy\FLAC\FLAC.EXE
Дополнительные параметры : -6 -V -T "ARTIST=%a" -T "TITLE=%t" -T "ALBUM=%g" -T "DATE=%y" -T "TRACKNUMBER=%n" -T "GENRE=%m" -T "COMMENT=%e" %s -o %d
TOC извлечённого CD
Трек | Старт | Длительность | Начальный сектор | Конечный сектор
---------------------------------------------------------------------
1 | 0:00.00 | 6:02.02 | 0 | 27151
2 | 6:02.02 | 4:57.36 | 27152 | 49462
3 | 10:59.38 | 6:30.39 | 49463 | 78751
4 | 17:30.02 | 5:55.66 | 78752 | 105442
5 | 23:25.68 | 3:33.39 | 105443 | 121456
Характеристики диапазона извлечения и сообщения об ошибках
Выбранный диапазон
Имя файла G:\KIILLSS\МАЙЕ\TUNDRA - In Cold Dimness.wav
Пиковый уровень 100.0 %
Качество диапазона 100.0 %
CRC теста 5F005E04
CRC копии 5F005E04
Копирование... OK
Ошибок не произошло
AccurateRip: сводка
Трек 1 нет в базе данных
Трек 2 нет в базе данных
Трек 3 нет в базе данных
Трек 4 нет в базе данных
Трек 5 нет в базе данных
Ни одного трека нет в базе AccurateRip
Конец отчёта

[211 MB] Скачать / Download