(Savage Symphonic/Diabolical Black Metal) Anorexia Nervosa - Redemption Process - 2004 (Reissue In 2015), FLAC (image+.cue), lossless - Скачать

Redemption Process

Жанр: Savage Symphonic/Diabolical Black Metal
Носитель: CD
Страна-производитель диска : France
Год издания: 2004
Издатель : Listenable Records
Номер по каталогу: POSH275
Страна исполнителя : France (Nantes, Pays de la Loire/Limoges, Limousin)
Аудиокодек: FLAC (*.flac)
Тип рипа: image+.cue
Битрейт аудио: lossless
Продолжительность: 01:16:57
Источник (релизер): CD/Я
Наличие сканов в содержимом раздачи: 600 dpi, JPG

Треклист:
01 - The Shining
02 - Antinferno
03 - Sister September
04 - Worship Manifesto
05 - Codex-Veritas
06 - An Amen
07 - The Sacrament
08 - Chatiment de la Rose (live)
09 - The Shining (live)
10 - Enter the Church of Fornication (live)
11 - An Amen (live)
12 - Sister September (live)

mp3, metal, рок, трек, torrent, cd, альбом, дискография, высокое качество, download, альбом, торрент, композиции, песни, soundtrack, метал, rock, lossless, скачать, музыка, бесплатно

 Exact Audio Copy V1.0 beta 6 from 9. April 2015
Отчёт EAC об извлечении, выполненном 24. декабря 2015, 12:18
Anorexia Nervosa / Redemption Process
Дисковод: Optiarc DVD RW AD-7283S Adapter: 1 ID: 0
Режим чтения : Достоверность
Использование точного потока : Да
Отключение кэша аудио : Да
Использование указателей C2 : Нет
Коррекция смещения при чтении : 48
Способность читать области Lead-in и Lead-out : Нет
Заполнение пропущенных сэмплов тишиной : Да
Удаление блоков с тишиной в начале и конце : Нет
При вычислениях CRC использовались нулевые сэмплы : Да
Интерфейс : Встроенный Win32-интерфейс для Win NT/2000
Выходной формат : Пользовательский кодировщик
Выбранный битрейт : 1024 kBit/s
Качество : Высокий
Добавление ID3-тега : Нет
Утилита сжатия : C:\Program Files (x86)\Exact Audio Copy\Flac\flac.exe
Дополнительные параметры : -V -8 -T "Date=%year%" -T "Genre=%genre%" %source%
TOC извлечённого CD
Трек | Старт | Длительность | Начальный сектор | Конечный сектор
---------------------------------------------------------------------
1 | 0:00.00 | 5:28.69 | 0 | 24668
2 | 5:28.69 | 6:47.46 | 24669 | 55239
3 | 12:16.40 | 6:33.57 | 55240 | 84771
4 | 18:50.22 | 5:30.17 | 84772 | 109538
5 | 24:20.39 | 7:07.13 | 109539 | 141576
6 | 31:27.52 | 7:28.42 | 141577 | 175218
7 | 38:56.19 | 6:41.00 | 175219 | 205293
8 | 45:37.19 | 5:45.31 | 205294 | 231199
9 | 51:22.50 | 5:35.46 | 231200 | 256370
10 | 56:58.21 | 5:48.49 | 256371 | 282519
11 | 62:46.70 | 7:23.55 | 282520 | 315799
12 | 70:10.50 | 6:46.47 | 315800 | 346296
Характеристики диапазона извлечения и сообщения об ошибках
Выбранный диапазон
Имя файла D:\Yourson\-Morgul-\Anorexia Nervosa\2004 - Redemption Process (Reissue In 2015)\Anorexia Nervosa - Redemption Process.wav
Пиковый уровень 99.7 %
Скорость извлечения 4.6 X
Качество диапазона 100.0 %
CRC теста 614C6A1A
CRC копии 614C6A1A
Копирование... OK
Ошибок не произошло
AccurateRip: сводка
Трек 1 отсутствует в базе данных
Трек 2 отсутствует в базе данных
Трек 3 отсутствует в базе данных
Трек 4 отсутствует в базе данных
Трек 5 отсутствует в базе данных
Трек 6 отсутствует в базе данных
Трек 7 отсутствует в базе данных
Трек 8 отсутствует в базе данных
Трек 9 отсутствует в базе данных
Трек 10 отсутствует в базе данных
Трек 11 отсутствует в базе данных
Трек 12 отсутствует в базе данных
Ни одного трека нет в базе AccurateRip
Конец отчёта
---- CUETools DB Plugin V2.1.6
[CTDB TOCID: PFcZXLsqUjOHrmGpcdOFHLPOOAQ-] disk not present in database
Submit result: Удаленный сервер возвратил ошибку: (417) Expectation failed.
==== Контрольная сумма отчёта F3A62057AC140060A4D0E3C200FD5E2C9E039A33B5D4167857EBC773346BFB25 ====
 AUDIOCHECKER v2.0 beta (build 457) - by Dester - [email protected]
~~~~~~~~~~~~~~~~~~~~~~~~~~~~~~~~~~
-=== DO NOT EDIT THIS FILE! ===-
Path: ...\2004 - Redemption Process (Reissue In 2015)
1 -=- Anorexia Nervosa - Redemption Process.flac -=- CDDA (100%)
235471428
Mr. Xort - Keyboards, Orchestrations
Mr. Couquet - Bass
Mr. Bayle - Guitars
Mr. Hreidmarr - Vocals, Lyrics
Mr. Vant - Drums
Guest:
Cecil G - Vocals (choirs)

[618.3 MB] Скачать / Download