(Sinful Black Metal) Temple of Baal - Black Unholy Presence - 2002, FLAC (image+.cue), lossless - Скачать

Жанр: Sinful Black Metal
Носитель: CD
Год издания: 2002
Издатель (лейбл): Oaken Shield
Номер по каталогу: FPG14
Страна исполнителя (группы): France
Аудиокодек: FLAC (*.flac)
Тип рипа: image+.cue
Битрейт аудио: lossless
Продолжительность: 33:14
Источник (релизер): KIILLSS
Thoughtovgrave: да
Треклист:
1. Intro 00:19 instrumental
2. Tempting the Bastard 06:13
3. Black Unholy Presence 06:08
4. Spirit of Vertova 04:48
5. Black War 03:26
6. Faces of the Void 06:10
7. Woman of Dark Desires (Bathory cover) 06:10Доп. информация: DEMO

дискография, музыка, скачать, download, rock, высокое качество, бесплатно, mp3, metal, cd, soundtrack, композиции, рок, трек, метал, песни, torrent, lossless, альбом, альбом, торрент

 Exact Audio Copy V1.3 from 2. September 2016
Отчёт EAC об извлечении, выполненном 5. мая 2017, 19:04
Temple of Baal / Black Unholy Presence
Дисковод: HL-DT-STDVDRAM GH24NS90 Adapter: 1 ID: 1
Режим чтения : Достоверность
Использование точного потока : Да
Отключение кэша аудио : Да
Использование указателей C2 : Нет
Коррекция смещения при чтении : 6
Способность читать области Lead-in и Lead-out : Нет
Заполнение пропущенных сэмплов тишиной : Да
Удаление блоков с тишиной в начале и конце : Нет
При вычислениях CRC использовались нулевые сэмплы : Да
Интерфейс : Встроенный Win32-интерфейс для Win NT/2000
Выходной формат : Пользовательский кодировщик
Выбранный битрейт : 128 kBit/s
Качество : Высокий
Добавление ID3-тега : Нет
Утилита сжатия : C:\Program Files (x86)\Exact Audio Copy 1.3\Flac\flac.exe
Дополнительные параметры : -V -8 -T "Date=%year%" -T "Genre=%genre%" %source%
TOC извлечённого CD
Трек | Старт | Длительность | Начальный сектор | Конечный сектор
---------------------------------------------------------------------
1 | 0:00.00 | 0:18.72 | 0 | 1421
2 | 0:18.72 | 6:03.03 | 1422 | 28649
3 | 6:22.00 | 6:08.26 | 28650 | 56275
4 | 12:30.26 | 4:47.62 | 56276 | 77862
5 | 17:18.13 | 3:23.45 | 77863 | 93132
6 | 20:41.58 | 6:06.67 | 93133 | 120649
7 | 26:48.50 | 3:41.24 | 120650 | 137248
Характеристики диапазона извлечения и сообщения об ошибках
Выбранный диапазон
Имя файла D:\FLAC\Temple of Baal - Black Unholy Presence.wav
Пиковый уровень 100.0 %
Скорость извлечения 6.2 X
Качество диапазона 99.9 %
CRC теста 1447C2F2
CRC копии 1447C2F2
Копирование... OK
Ошибок не произошло
AccurateRip: сводка
Трек 1 : извлечено точно (доверие 2) [82EE443A] (AR v1)
Трек 2 : извлечено точно (доверие 2) [33CE827E] (AR v1)
Трек 3 : извлечено точно (доверие 2) [37F42D43] (AR v1)
Трек 4 : извлечено точно (доверие 2) [F040F8C4] (AR v1)
Трек 5 : извлечено точно (доверие 2) [ABA08650] (AR v1)
Трек 6 : извлечено точно (доверие 2) [4ECF40F0] (AR v1)
Трек 7 : извлечено точно (доверие 2) [C0C232F6] (AR v1)
Все треки извлечены точно
Конец отчёта
==== Контрольная сумма отчёта 42442389019C6B0E8FFFF5C8EDC1A52353E5C208CF3EBB439B42CB0C1FA0413B ====
 REM GENRE "Black Metal"
REM DATE 2002
REM DISCID 38072507
REM COMMENT "ExactAudioCopy v1.3"
PERFORMER "Temple of Baal"
TITLE "Black Unholy Presence"
REM COMPOSER ""
FILE "Temple of Baal - Black Unholy Presence.flac" WAVE
TRACK 01 AUDIO
TITLE "Intro"
PERFORMER "Temple of Baal"
REM COMPOSER ""
FLAGS DCP
INDEX 01 00:00:00
TRACK 02 AUDIO
TITLE "Tempting the bastard"
PERFORMER "Temple of Baal"
REM COMPOSER ""
FLAGS DCP
INDEX 01 00:18:72
TRACK 03 AUDIO
TITLE "Black unholy presence"
PERFORMER "Temple of Baal"
REM COMPOSER ""
FLAGS DCP
INDEX 01 06:22:00
TRACK 04 AUDIO
TITLE "Spirit of vertova"
PERFORMER "Temple of Baal"
REM COMPOSER ""
FLAGS DCP
INDEX 01 12:30:26
TRACK 05 AUDIO
TITLE "Black war"
PERFORMER "Temple of Baal"
REM COMPOSER ""
FLAGS DCP
INDEX 01 17:18:13
TRACK 06 AUDIO
TITLE "Faces of the void"
PERFORMER "Temple of Baal"
REM COMPOSER ""
FLAGS DCP
INDEX 01 20:41:58
TRACK 07 AUDIO
TITLE "Woman of dark desires"
PERFORMER "Temple of Baal"
REM COMPOSER ""
INDEX 01 26:48:50
Arkdaemon Bass, Vocals (backing) (1998-present)
See also: Hell Militia, ex-Deviant
Amduscias Vocals, Guitars (1998-present)
See also: Bloodoffer, Bran Barr, Conviction, ex-Bael, ex-Banished Spirits, ex-Fly Strike, ex-Antaeus, ex-Silver Machine
Herr Rikk - See also:Nydvind

[226.5 MB] Скачать / Download