(Suicidal Black Metal) Suicidal Inc. - Leave this world behind / Dead enough for life (2CD) - 2009, 2010, FLAC (image+.cue) lossless - Скачать

Жанр: Suicidal Black Metal
Страна-производитель диска: Mexico
Год издания диска: 2009, 2010
Издатель (лейбл): Black Saw Records
Страна: Mexico
Аудио кодек: FLAC (*.flac)
Тип рипа: image+.cue
Битрейт аудио: lossless
Продолжительность: 2 CD
Источник (релизер): собственные рипы
Наличие сканов в содержимом раздачи: да

soundtrack, музыка, высокое качество, rock, композиции, песни, mp3, cd, дискография, альбом, download, metal, torrent, альбом, метал, торрент, рок, скачать, lossless, бесплатно, трек

Год издания диска: 2009
Номер по каталогу: BS 004
Продолжительность: 35:10
Треклист:
1. Colapse 05:27
2. Self destruction 06:13
3. Failure to dead 05:19
4. Dead after tomorrow 03:58
5. Is time to decline the life 05:22
6. Dead in silence (end of life) 08:51
Лог создания рипа
 Exact Audio Copy V1.0 beta 1 from 15. November 2010
EAC extraction logfile from 13. May 2011, 19:15
Suicidal Inc. / Leave this world behind
Used drive : Optiarc BD ROM BC-5500S Adapter: 0 ID: 1
Read mode : Secure
Utilize accurate stream : Yes
Defeat audio cache : Yes
Make use of C2 pointers : No
Read offset correction : 48
Overread into Lead-In and Lead-Out : No
Fill up missing offset samples with silence : Yes
Delete leading and trailing silent blocks : No
Null samples used in CRC calculations : Yes
Used interface : Installed external ASPI interface
Used output format : User Defined Encoder
Selected bitrate : 768 kBit/s
Quality : High
Add ID3 tag : No
Command line compressor : C:\Program Files\Exact Audio Copy\FLAC\FLAC.EXE
Additional command line options : -8 -V %s
TOC of the extracted CD
Track | Start | Length | Start sector | End sector
---------------------------------------------------------
1 | 0:00.00 | 5:27.16 | 0 | 24540
2 | 5:27.16 | 6:13.05 | 24541 | 52520
3 | 11:40.21 | 5:18.50 | 52521 | 76420
4 | 16:58.71 | 3:58.10 | 76421 | 94280
5 | 20:57.06 | 5:21.58 | 94281 | 118413
6 | 26:18.64 | 8:51.07 | 118414 | 158245
Range status and errors
Selected range
Filename D:\iiinah\Suicidal Inc\2009 Leave this world behind\Suicidal Inc. - Leave this world behind.wav
Peak level 100.0 %
Extraction speed 0.8 X
Range quality 99.9 %
Test CRC AF0C16B8
Copy CRC AF0C16B8
Copy OK
No errors occurred
AccurateRip summary
Track 1 not present in database
Track 2 not present in database
Track 3 not present in database
Track 4 not present in database
Track 5 not present in database
Track 6 not present in database
None of the tracks are present in the AccurateRip database
End of status report
==== Log checksum 7DF686DF78249F5DA5DFF40E518A1EEDAA4D458369856FBF9B895933A137D800 ====
 Exact Audio Copy V1.0 beta 1 from 15. November 2010
EAC extraction logfile from 13. May 2011, 19:15
Suicidal Inc. / Leave this world behind
Used drive : Optiarc BD ROM BC-5500S Adapter: 0 ID: 1
Read mode : Secure
Utilize accurate stream : Yes
Defeat audio cache : Yes
Make use of C2 pointers : No
Read offset correction : 48
Overread into Lead-In and Lead-Out : No
Fill up missing offset samples with silence : Yes
Delete leading and trailing silent blocks : No
Null samples used in CRC calculations : Yes
Used interface : Installed external ASPI interface
Used output format : User Defined Encoder
Selected bitrate : 768 kBit/s
Quality : High
Add ID3 tag : No
Command line compressor : C:\Program Files\Exact Audio Copy\FLAC\FLAC.EXE
Additional command line options : -8 -V %s
TOC of the extracted CD
Track | Start | Length | Start sector | End sector
---------------------------------------------------------
1 | 0:00.00 | 5:27.16 | 0 | 24540
2 | 5:27.16 | 6:13.05 | 24541 | 52520
3 | 11:40.21 | 5:18.50 | 52521 | 76420
4 | 16:58.71 | 3:58.10 | 76421 | 94280
5 | 20:57.06 | 5:21.58 | 94281 | 118413
6 | 26:18.64 | 8:51.07 | 118414 | 158245
Range status and errors
Selected range
Filename D:\iiinah\Suicidal Inc\2009 Leave this world behind\Suicidal Inc. - Leave this world behind.wav
Peak level 100.0 %
Extraction speed 0.8 X
Range quality 99.9 %
Test CRC AF0C16B8
Copy CRC AF0C16B8
Copy OK
No errors occurred
AccurateRip summary
Track 1 not present in database
Track 2 not present in database
Track 3 not present in database
Track 4 not present in database
Track 5 not present in database
Track 6 not present in database
None of the tracks are present in the AccurateRip database
End of status report
==== Log checksum 7DF686DF78249F5DA5DFF40E518A1EEDAA4D458369856FBF9B895933A137D800 ====
Год издания диска: 2010
Номер по каталогу: BSR 010
Продолжительность: 50:37
Треклист:
1. The life without me 09:37
2. Seduced by suicide 05:40
3. Alcoholic then suicidal 11:33
4. A fragil decision 08:01
5. Larva 07:06
6. My vision of life (now dead) 08:40
Лог создания рипа
 Exact Audio Copy V1.0 beta 1 from 15. November 2010
EAC extraction logfile from 12. May 2011, 18:19
Suicidal Inc. / Dead enough for life
Used drive : Optiarc BD ROM BC-5500S Adapter: 0 ID: 1
Read mode : Secure
Utilize accurate stream : Yes
Defeat audio cache : Yes
Make use of C2 pointers : No
Read offset correction : 48
Overread into Lead-In and Lead-Out : No
Fill up missing offset samples with silence : Yes
Delete leading and trailing silent blocks : No
Null samples used in CRC calculations : Yes
Used interface : Installed external ASPI interface
Used output format : User Defined Encoder
Selected bitrate : 768 kBit/s
Quality : High
Add ID3 tag : No
Command line compressor : C:\Program Files\Exact Audio Copy\FLAC\FLAC.EXE
Additional command line options : -8 -V %s
TOC of the extracted CD
Track | Start | Length | Start sector | End sector
---------------------------------------------------------
1 | 0:00.00 | 9:36.66 | 0 | 43265
2 | 9:36.66 | 5:40.04 | 43266 | 68769
3 | 15:16.70 | 11:33.04 | 68770 | 120748
4 | 26:49.74 | 8:01.34 | 120749 | 156857
5 | 34:51.33 | 7:05.49 | 156858 | 188781
6 | 41:57.07 | 8:40.17 | 188782 | 227798
Range status and errors
Selected range
Filename D:\iiinah\Suicidal Inc\2010 Dead enough for life\Suicidal Inc. - Dead enough for life.wav
Peak level 100.0 %
Extraction speed 0.5 X
Range quality 99.9 %
Test CRC FA354E66
Copy CRC FA354E66
Copy OK
No errors occurred
AccurateRip summary
Track 1 not present in database
Track 2 not present in database
Track 3 not present in database
Track 4 not present in database
Track 5 not present in database
Track 6 not present in database
None of the tracks are present in the AccurateRip database
End of status report
==== Log checksum AACA922E4B4E74449AD0C35DC3B355D077C79A0B4FEBC13DA45EF7D5B91B0C47 ====
 Exact Audio Copy V1.0 beta 1 from 15. November 2010
EAC extraction logfile from 12. May 2011, 18:19
Suicidal Inc. / Dead enough for life
Used drive : Optiarc BD ROM BC-5500S Adapter: 0 ID: 1
Read mode : Secure
Utilize accurate stream : Yes
Defeat audio cache : Yes
Make use of C2 pointers : No
Read offset correction : 48
Overread into Lead-In and Lead-Out : No
Fill up missing offset samples with silence : Yes
Delete leading and trailing silent blocks : No
Null samples used in CRC calculations : Yes
Used interface : Installed external ASPI interface
Used output format : User Defined Encoder
Selected bitrate : 768 kBit/s
Quality : High
Add ID3 tag : No
Command line compressor : C:\Program Files\Exact Audio Copy\FLAC\FLAC.EXE
Additional command line options : -8 -V %s
TOC of the extracted CD
Track | Start | Length | Start sector | End sector
---------------------------------------------------------
1 | 0:00.00 | 9:36.66 | 0 | 43265
2 | 9:36.66 | 5:40.04 | 43266 | 68769
3 | 15:16.70 | 11:33.04 | 68770 | 120748
4 | 26:49.74 | 8:01.34 | 120749 | 156857
5 | 34:51.33 | 7:05.49 | 156858 | 188781
6 | 41:57.07 | 8:40.17 | 188782 | 227798
Range status and errors
Selected range
Filename D:\iiinah\Suicidal Inc\2010 Dead enough for life\Suicidal Inc. - Dead enough for life.wav
Peak level 100.0 %
Extraction speed 0.5 X
Range quality 99.9 %
Test CRC FA354E66
Copy CRC FA354E66
Copy OK
No errors occurred
AccurateRip summary
Track 1 not present in database
Track 2 not present in database
Track 3 not present in database
Track 4 not present in database
Track 5 not present in database
Track 6 not present in database
None of the tracks are present in the AccurateRip database
End of status report
==== Log checksum AACA922E4B4E74449AD0C35DC3B355D077C79A0B4FEBC13DA45EF7D5B91B0C47 ====

[699.5 MB] Скачать / Download