(Sympho black metal) Stormlord - The Curse of Medusa (MCD) - 2001, FLAC (image+.cue), lossless - Скачать

Жанр: Sympho black metal
Год выпуска диска: 2001
Аудио кодек: FLAC
Тип рипа: image+.cue
Битрейт аудио: lossless
Продолжительность: 00:36:45
Трэклист:
1. The Curse of Medusa 6:17
2. Under the Samnite's Spears 6:49
3. Dawn of Winter Solstice 3:07
4. Baphomet [Death SS cover] 5:22
5. A Descent Into the Kingdom of the Shades (live) 5:57
6. Creeping Death (live) [Metallica cover] 6:21
7. The Death of Medusa 2:52
Доп. информация: Stormlord - Curse Of Medusa is a below average CD. It includes a couple demos and even a cover to Metallica's Creeping Death (remember when Metallica was once good) and other live tracks. I don't like this CD much at all but the new Stormlord CD (At The Gates Of Utopia) is a much stronger and complete release. In addition the music is Symphonic Black Metal with keyboards present that adds an epic theme which gets away from the annoying organ sounding [stuff] and the theme of goths and vampires (like Cradle Of Filth, Old Mans Child, Borknagar) and all other trendy hot topic junk. Anyways check Stormlord out ,they are unique and really are a decent band that is underrated. I suggest their newest CD like I mentioned earlier instead.
В переводе говорится о неплохом образчике симфонического блэк метала.
Сканы в комплекте

rock, метал, torrent, рок, альбом, торрент, песни, трек, композиции, lossless, дискография, скачать, download, mp3, альбом, высокое качество, cd, музыка, бесплатно, soundtrack, metal

Exact Audio Copy V0.99 prebeta 4 from 23. January 2008
EAC extraction logfile from 27. January 2009, 22:26
Stormlord / The Curse of Medusa
Used drive : ASUS DRW-1608P3S Adapter: 1 ID: 0
Read mode : Secure
Utilize accurate stream : Yes
Defeat audio cache : Yes
Make use of C2 pointers : No
Read offset correction : 48
Overread into Lead-In and Lead-Out : No
Fill up missing offset samples with silence : Yes
Delete leading and trailing silent blocks : No
Null samples used in CRC calculations : Yes
Used interface : Installed external ASPI interface
Used output format : User Defined Encoder
Selected bitrate : 1024 kBit/s
Quality : High
Add ID3 tag : No
Command line compressor : C:\Program Files\Exact Audio Copy\FLAC\FLAC.EXE
Additional command line options : -8 -V -T "ARTIST=%a" -T "TITLE=%t" -T "ALBUM=%g" -T "DATE=%y" -T "TRACKNUMBER=%n" -T "GENRE=%m" -T "COMMENT=%e" %s -o %d
TOC of the extracted CD
Track | Start | Length | Start sector | End sector
---------------------------------------------------------
1 | 0:00.00 | 6:17.37 | 0 | 28311
2 | 6:17.37 | 6:49.45 | 28312 | 59031
3 | 13:07.07 | 3:07.08 | 59032 | 73064
4 | 16:14.15 | 5:22.70 | 73065 | 97284
5 | 21:37.10 | 5:57.25 | 97285 | 124084
6 | 27:34.35 | 6:21.45 | 124085 | 152704
7 | 33:56.05 | 2:52.07 | 152705 | 165611
Range status and errors
Selected range
Filename C:\Downloads-Torrent\Stormlord - The Curse of Medusa - 2001\Stormlord - The Curse of Medusa.wav
Peak level 99.9 %
Range quality 100.0 %
Test CRC 1900CE8A
Copy CRC 1900CE8A
Copy OK
No errors occurred
End of status report

[308.3 MB] Скачать / Download