(Symphonic Black Metal/Ambient) Elffor - Heriotz Sustraiak (Alternate Version) - 2014, FLAC (image+.cue), lossless - Скачать

Жанр: Symphonic Black Metal/Ambient
Носитель: CD (Ltd. Digipak)
Год издания: 2014-05
Издатель (лейбл): Independent
Номер по каталогу: N/A
Страна исполнителя (группы): Spain
Аудиокодек: FLAC (*.flac)
Тип рипа: image+.cue
Битрейт аудио: lossless
Продолжительность: 1:02:14
Источник (релизер): оригинальный релиз
Наличие сканов в содержимом раздачи: да
Треклист:
01. Barrumbe beltza [00:12:11]
02. Hildakoen basoetan [00:09:22]
03. Heriotz sustraiak [00:10:40]
04. Kateek loturik... [00:15:53]
05. Zhenon Basotik Haratago [00:14:08] (Bonus)
http://www.discogs.com/Elffor-Heriotz-Sustraiak/release/6087977

cd, download, альбом, песни, torrent, soundtrack, альбом, трек, композиции, rock, mp3, высокое качество, метал, скачать, metal, торрент, дискография, lossless, рок, музыка, бесплатно

 Exact Audio Copy V1.1 from 23. June 2015Exact Audio Copy V1.1 from 23. June 2015
EAC extraction logfile from 24. August 2015, 23:40
Elffor / Heriotz Sustraiak (Alternate Version)
Used drive : TSSTcorpCDDVDW SE-208AB Adapter: 1 ID: 2
Read mode : Secure
Utilize accurate stream : Yes
Defeat audio cache : Yes
Make use of C2 pointers : No
Read offset correction : 6
Overread into Lead-In and Lead-Out : No
Fill up missing offset samples with silence : Yes
Delete leading and trailing silent blocks : No
Null samples used in CRC calculations : Yes
Used interface : Native Win32 interface for Win NT & 2000
Used output format : Internal WAV Routines
Sample format : 44.100 Hz; 16 Bit; Stereo
TOC of the extracted CD
Track | Start | Length | Start sector | End sector
---------------------------------------------------------
1 | 0:00.00 | 12:10.38 | 0 | 54787
2 | 12:10.38 | 9:22.00 | 54788 | 96937
3 | 21:32.38 | 10:40.34 | 96938 | 144971
4 | 32:12.72 | 15:53.09 | 144972 | 216455
5 | 48:06.06 | 14:08.00 | 216456 | 280055
Range status and errors
Selected range
Filename C:\Users\KDE\Downloads\EL - 2014\Elffor - Heriotz Sustraiak (Alternate Version).wav
Peak level 100.0 %
Extraction speed 4.7 X
Range quality 100.0 %
Copy CRC 7BF75A24
Copy OK
No errors occurred
End of status report
---- CUETools DB Plugin V2.1.6
[CTDB TOCID: 7m.dO8.Lz3TR3g_eRx8Y6ATcx4A-] found
Submit result: already submitted
Track | CTDB Status
1 | (3/3) Accurately ripped
2 | (3/3) Accurately ripped
3 | (3/3) Accurately ripped
4 | (3/3) Accurately ripped
5 | (3/3) Accurately ripped
 REM GENRE Black Metal
REM DATE 2014
REM DISCID 490E9605
REM COMMENT ExactAudioCopy v1.1
CATALOG N/A
PERFORMER "Elffor"
TITLE "Heriotz Sustraiak (Alternate Version)"
FILE "Elffor - Heriotz Sustraiak (Alternate Version).flac" WAVE
TRACK 01 AUDIO
TITLE "Barrumbe beltza"
INDEX 01 00:00:00
TRACK 02 AUDIO
TITLE "Hildakoen basoetan"
INDEX 01 12:10:38
TRACK 03 AUDIO
TITLE "Heriotz sustraiak"
INDEX 01 21:32:38
TRACK 04 AUDIO
TITLE "Kateek loturik"
INDEX 01 32:12:72
TRACK 05 AUDIO
TITLE "Zhenon Basotik Haratago"
INDEX 01 48:06:06
foobar2000 1.3.8 / Dynamic Range Meter 1.1.1
log date: 2015-08-25 00:03:48
--------------------------------------------------------------------------------
Analyzed: Elffor / Heriotz Sustraiak (Alternate Version)
--------------------------------------------------------------------------------
DR Peak RMS Duration Track
--------------------------------------------------------------------------------
DR6 -0.09 dB -8.28 dB 12:11 01-Barrumbe beltza
DR6 -0.10 dB -7.69 dB 9:22 02-Hildakoen basoetan
DR7 -0.10 dB -9.63 dB 10:40 03-Heriotz sustraiak
DR7 -0.10 dB -8.83 dB 15:53 04-Kateek loturik
DR10 0.00 dB -11.36 dB 14:08 05-Zhenon Basotik Haratago
--------------------------------------------------------------------------------
Number of tracks: 5
Official DR value: DR7
Samplerate: 44100 Hz
Channels: 2
Bits per sample: 16
Bitrate: 911 kbps
Codec: FLAC
================================================================================

[416.8 MB] Скачать / Download