(Symphonic Black Metal) Dimmu Borgir - Puritanical Euphoric Misanthropia (Japan 1st Press) - 2001, FLAC (image+.cue), lossless - Скачать

Жанр: Symphonic Black Metal
Страна-производитель диска: Япония
Год издания: 2001
Издатель (лейбл): Marquee Inc.
Номер по каталогу: MICP-80001
Страна: Норвегия
Аудиокодек: FLAC (*.flac)
Тип рипа: image+.cue
Битрейт аудио: lossless
Продолжительность: 57:55
Источник (релизер): Собственный фирменный диск
Наличие сканов в содержимом раздачи: да
Треклист:
01. Fear And Wonder
02. Blessings Upon The Throne Of Tyranny
03. Kings Of The Carnival Creation
04. Hybrid Stigmata - The Apostasy
05. Architecture Of A Genocidal Nature
06. Puritania
07. IndoctriNation
08. The Maelstorm Mephisto
09. Absolute Sole Right
10. Sympozium
11. Perfection Or Vanity

альбом, lossless, песни, трек, mp3, скачать, metal, рок, торрент, композиции, дискография, download, rock, torrent, высокое качество, cd, метал, soundtrack, альбом, бесплатно, музыка

 Exact Audio Copy V1.0 beta 3 from 29. August 2011
EAC extraction logfile from 5. May 2013, 16:26
Dimmu Borgir / Puritanical Euphoric Misanthropia (Japan)
Used drive : Optiarc DVD RW AD-7260S Adapter: 1 ID: 1
Read mode : Secure
Utilize accurate stream : Yes
Defeat audio cache : Yes
Make use of C2 pointers : No
Read offset correction : 48
Overread into Lead-In and Lead-Out : No
Fill up missing offset samples with silence : Yes
Delete leading and trailing silent blocks : No
Null samples used in CRC calculations : Yes
Used interface : Native Win32 interface for Win NT & 2000
Used output format : Internal WAV Routines
Sample format : 44.100 Hz; 16 Bit; Stereo
TOC of the extracted CD
Track | Start | Length | Start sector | End sector
---------------------------------------------------------
1 | 0:00.00 | 2:48.02 | 0 | 12601
2 | 2:48.02 | 5:18.70 | 12602 | 36521
3 | 8:06.72 | 7:48.33 | 36522 | 71654
4 | 15:55.30 | 6:57.52 | 71655 | 102981
5 | 22:53.07 | 6:08.70 | 102982 | 130651
6 | 29:02.02 | 3:06.33 | 130652 | 144634
7 | 32:08.35 | 5:57.32 | 144635 | 171441
8 | 38:05.67 | 4:42.23 | 171442 | 192614
9 | 42:48.15 | 6:26.02 | 192615 | 221566
10 | 49:14.17 | 5:13.58 | 221567 | 245099
11 | 54:28.00 | 3:27.25 | 245100 | 260649
Range status and errors
Selected range
Filename C:\Мои документы\Dimmu Borgir - 2001 - Puritanical Euphoric Misanthropia (Japan).wav
Peak level 100.0 %
Extraction speed 3.9 X
Range quality 100.0 %
Test CRC 7BE28106
Copy CRC 7BE28106
Copy OK
No errors occurred
AccurateRip summary
Track 1 accurately ripped (confidence 2) [847FB468] (AR v1)
Track 2 accurately ripped (confidence 2) [BAA2A051] (AR v1)
Track 3 accurately ripped (confidence 2) [8FE2F94A] (AR v1)
Track 4 accurately ripped (confidence 2) [49E9BB93] (AR v1)
Track 5 accurately ripped (confidence 2) [4764A91D] (AR v1)
Track 6 accurately ripped (confidence 2) [A999B4D3] (AR v1)
Track 7 accurately ripped (confidence 2) [DBFE1005] (AR v1)
Track 8 accurately ripped (confidence 2) [DDE48C7A] (AR v1)
Track 9 accurately ripped (confidence 2) [C1CF76DE] (AR v1)
Track 10 accurately ripped (confidence 2) [483D8B90] (AR v1)
Track 11 accurately ripped (confidence 2) [3432EDDB] (AR v1)
All tracks accurately ripped
End of status report
---- CUETools DB Plugin V2.1.4
[CTDB TOCID: v5.FiZyAkTQluR1GqznPV1NIm5s-] found
Submit result: v5.FiZyAkTQluR1GqznPV1NIm5s- has been confirmed
Track | CTDB Status
1 | (2/2) Accurately ripped
2 | (2/2) Accurately ripped
3 | (2/2) Accurately ripped
4 | (2/2) Accurately ripped
5 | (2/2) Accurately ripped
6 | (2/2) Accurately ripped
7 | (2/2) Accurately ripped
8 | (2/2) Accurately ripped
9 | (2/2) Accurately ripped
10 | (2/2) Accurately ripped
11 | (2/2) Accurately ripped
==== Log checksum 6E8AB03403A62C584C9785614C09BA9518C54EFCBCA5FEE90E368711ABCAE47E ====

[532.1 MB] Скачать / Download