(Symphonic Death | Black Metal) Grief Of Emerald - Christian Termination - 2002, FLAC (image+.cue), lossless - Скачать

Жанр: Symphonic Death | Black Metal
Носитель: CD
Год издания: 2002
Издатель (лейбл): LISTENABLE RECORDS
Номер по каталогу: POSH 037
Страна исполнителя (группы): Sweden
Аудиокодек: FLAC (*.flac)
Тип рипа: image+.cue
Битрейт аудио: lossless
Продолжительность: 00:50:25
Источник (релизер): burzzum
Наличие сканов: нет

01. Alas, Spiriti Sancti [00:04:12]
02. The Almighty Is Rising [00:05:13]
03. Raped By The Servant Of God [00:04:19]
04. Scum Of The Earth [00:04:06]
05. The Cause [00:06:00]
06. Christian Termination [00:05:03]
07. Deformed Imaginations [00:07:26]
08. Consumed By Fire [00:03:52]
09. Those Who Bear The Mark [00:04:41]
10. Humanity's Fall [00:05:28]

cd, трек, дискография, torrent, рок, альбом, метал, скачать, download, бесплатно, музыка, торрент, композиции, metal, lossless, альбом, rock, mp3, высокое качество, песни, soundtrack

 Exact Audio Copy V1.0 beta 3 from 29. August 2011
Отчёт EAC об извлечении, выполненном 22. сентября 2014, 20:59
Grief Of Emerald / Christian Termination
Дисковод: ASUS DRW-24F1ST a Adapter: 5 ID: 0
Режим чтения : Достоверность
Использование точного потока : Да
Отключение кэша аудио : Да
Использование указателей C2 : Нет
Коррекция смещения при чтении : 6
Способность читать области Lead-in и Lead-out : Нет
Заполнение пропущенных сэмплов тишиной : Да
Удаление блоков с тишиной в начале и конце : Нет
При вычислениях CRC использовались нулевые сэмплы : Да
Интерфейс : Встроенный Win32-интерфейс для Win NT/2000
Выходной формат : Пользовательский кодировщик
Выбранный битрейт : 1024 kBit/s
Качество : Высокий
Добавление ID3-тега : Нет
Утилита сжатия : C:\Program Files (x86)\FLAC\flac.exe
Дополнительные параметры : -V -8 -T "Date=%year%" -T "Genre=%genre%" %source%
TOC извлечённого CD
Трек | Старт | Длительность | Начальный сектор | Конечный сектор
---------------------------------------------------------------------
1 | 0:00.00 | 4:12.72 | 0 | 18971
2 | 4:12.72 | 5:13.15 | 18972 | 42461
3 | 9:26.12 | 4:19.65 | 42462 | 61951
4 | 13:46.02 | 4:06.60 | 61952 | 80461
5 | 17:52.62 | 6:00.18 | 80462 | 107479
6 | 23:53.05 | 5:03.42 | 107480 | 130246
7 | 28:56.47 | 7:26.00 | 130247 | 163696
8 | 36:22.47 | 3:52.73 | 163697 | 181169
9 | 40:15.45 | 4:41.32 | 181170 | 202276
10 | 44:57.02 | 5:28.50 | 202277 | 226926
Характеристики диапазона извлечения и сообщения об ошибках
Выбранный диапазон
Имя файла G:\FLAC\Grief Of Emerald - Christian Termination.wav
Пиковый уровень 100.0 %
Скорость извлечения 6.9 X
Качество диапазона 100.0 %
CRC теста 940C4374
CRC копии 940C4374
Копирование... OK
Ошибок не произошло
AccurateRip: сводка
Трек 1 : извлечено точно (доверие 3) [FFF36208] (AR v2)
Трек 2 : извлечено точно (доверие 3) [79E89BB5] (AR v2)
Трек 3 : извлечено точно (доверие 3) [8AD8851F] (AR v2)
Трек 4 : извлечено точно (доверие 3) [B086BB78] (AR v2)
Трек 5 : извлечено точно (доверие 3) [FABCCAB9] (AR v2)
Трек 6 : извлечено точно (доверие 3) [92D2300A] (AR v2)
Трек 7 : извлечено точно (доверие 3) [6EE93B23] (AR v2)
Трек 8 : извлечено точно (доверие 3) [B581E1BD] (AR v2)
Трек 9 : извлечено точно (доверие 3) [43DA6EAF] (AR v2)
Трек 10 : извлечено точно (доверие 3) [C138496D] (AR v2)
Все треки извлечены точно
Конец отчёта
 REM GENRE "Death Metal"
REM DATE 2002
REM DISCID 950BD10A
REM COMMENT "ExactAudioCopy v1.0b3"
PERFORMER "Grief Of Emerald"
TITLE "Christian Termination"
FILE "Grief Of Emerald - Christian Termination.flac" WAVE
TRACK 01 AUDIO
TITLE "Alas, Spiriti Sancti"
PERFORMER "Grief Of Emerald"
INDEX 01 00:00:00
TRACK 02 AUDIO
TITLE "The Almighty Is Rising"
PERFORMER "Grief Of Emerald"
INDEX 01 04:12:72
TRACK 03 AUDIO
TITLE "Raped By The Servant Of God"
PERFORMER "Grief Of Emerald"
INDEX 01 09:26:12
TRACK 04 AUDIO
TITLE "Scum Of The Earth"
PERFORMER "Grief Of Emerald"
INDEX 01 13:46:02
TRACK 05 AUDIO
TITLE "The Cause"
PERFORMER "Grief Of Emerald"
INDEX 01 17:52:62
TRACK 06 AUDIO
TITLE "Christian Termination"
PERFORMER "Grief Of Emerald"
INDEX 01 23:53:05
TRACK 07 AUDIO
TITLE "Deformed Imaginations"
PERFORMER "Grief Of Emerald"
INDEX 01 28:56:47
TRACK 08 AUDIO
TITLE "Consumed By Fire"
PERFORMER "Grief Of Emerald"
INDEX 01 36:22:47
TRACK 09 AUDIO
TITLE "Those Who Bear The Mark"
PERFORMER "Grief Of Emerald"
INDEX 01 40:15:45
TRACK 10 AUDIO
TITLE "Humanity's Fall"
PERFORMER "Grief Of Emerald"
INDEX 01 44:57:02
 -----------------------
DON'T MODIFY THIS FILE
-----------------------
PERFORMER: auCDtect Task Manager, ver. 1.6.0 RC1 build 1.6.0.1
Copyright (c) 2008-2010 y-soft. All rights reserved
http://y-soft.org
ANALYZER: auCDtect: CD records authenticity detector, version 0.8.2
Copyright (c) 2004 Oleg Berngardt. All rights reserved.
Copyright (c) 2004 Alexander Djourik. All rights reserved.
FILE: Grief Of Emerald - Christian Termination.flac
Size: 410625857 Hash: 47ADC78764F05F0B524ECE816959BA5C Accuracy: -m0
Conclusion: CDDA 100%
Signature: 13C278D71B24FA7B5B1CF529A1804963CF269439

[392.7 MB] Скачать / Download