(Traw Black Metal) Ganzmord & Dodsferd - Doom and Destroy - 2007 (split), FLAC (image+.cue) lossless - Скачать

GANZMORD & DODSFERD - Doom and Destroy
Жанр: Traw Black Metal
Год издания диска: 2007
Издатель (лейбл): Blackmetal.com
Номер по каталогу: BMC66637CD
Страна: United States of America & Greece
Аудио кодек: FLAC (*.flac)
Тип рипа: image+.cue
Битрейт аудио: lossless
Продолжительность: 46:09
Источник (релизер): original CD
Наличие сканов в содержимом раздачи: да
Треклист:
Ganzmord
1. Initiation Of The Doom Ritual 07:02
2. Under A Shadow Of Evil 04:51
3. Flaming Soil 06:23
4. Earth In My Image 07:12
Dodsferd
5. Dead Amongst Us 02:26
6. Dodsferd 03:28
7. Pale Forest Sing For The Dead 08:50
8. Pure Hatred 05:57
Доп. информация:Два отморозка - DODSFERD и GANZMORD - спровадят твою душку под мрачный клавикорд!
Одному греку посвящаю...

торрент, скачать, lossless, metal, музыка, рок, rock, download, метал, песни, высокое качество, трек, композиции, дискография, torrent, soundtrack, альбом, cd, альбом, бесплатно, mp3

 Exact Audio Copy V0.99 prebeta 5 from 4. May 2009
Отчёт EAC об извлечении, выполненном 15. декабря 2010, 15:57
Ganzmord & Dodsferd / Doom and destroy
Дисковод: Optiarc DVD RW AD-5240S Adapter: 3 ID: 0
Режим чтения : Достоверность
Использование точного потока : Да
Отключение кэша аудио : Да
Использование указателей C2 : Нет
Коррекция смещения при чтении : 48
Способность читать области Lead-in и Lead-out : Нет
Заполнение пропущенных сэмплов тишиной : Да
Удаление блоков с тишиной в начале и конце : Нет
При вычислениях CRC использовались нулевые сэмплы : Да
Интерфейс : Установленный внешний ASPI-интерфейс
Выходной формат : Пользовательский кодировщик
Выбранный битрейт : 768 kBit/s
Качество : Высокий
Добавление ID3-тэга : Нет
Утилита сжатия : C:\Program Files\Exact Audio Copy\FLAC\FLAC.EXE
Дополнительные параметры : -6 -V -T "ARTIST=%a" -T "TITLE=%t" -T "ALBUM=%g" -T "DATE=%y" -T "TRACKNUMBER=%n" -T "GENRE=%m" -T "COMMENT=%e" %s -o %d
TOC извлечённого CD
Трек | Старт | Длительность | Начальный сектор | Конечный сектор
---------------------------------------------------------------------
1 | 0:00.00 | 7:02.02 | 0 | 31651
2 | 7:02.02 | 4:51.10 | 31652 | 53486
3 | 11:53.12 | 6:23.36 | 53487 | 82247
4 | 18:16.48 | 7:12.62 | 82248 | 114709
5 | 25:29.35 | 2:26.21 | 114710 | 125680
6 | 27:55.56 | 3:28.71 | 125681 | 141351
7 | 31:24.52 | 8:50.48 | 141352 | 181149
8 | 40:15.25 | 5:57.66 | 181150 | 207990
Характеристики диапазона извлечения и сообщения об ошибках
Выбранный диапазон
Имя файла E:\ЯОБРАЗА\Ganzmord & Dodsferd - Doom and destroy.wav
Пиковый уровень 100.0 %
Качество диапазона 100.0 %
CRC теста 5675FD86
CRC копии 5675FD86
Копирование... OK
Ошибок не произошло
AccurateRip: сводка
Трек 1 нет в базе данных
Трек 2 нет в базе данных
Трек 3 нет в базе данных
Трек 4 нет в базе данных
Трек 5 нет в базе данных
Трек 6 нет в базе данных
Трек 7 нет в базе данных
Трек 8 нет в базе данных
Ни одного трека нет в базе AccurateRip
Конец отчёта

Ganzmord - vocals, all instruments (Begravelse, Gorgontongue)

Wrath (Nikos Spanakis) - Vocals, Guitar (Kampf (Grc), Nadiwrath, Drunk Earth, Grab)

[362.7 MB] Скачать / Download