(Traw Black Metal) Total Hate (Deu) - Total Hate - 2002 (2004 re-issue), FLAC (image+.cue) lossless - Скачать

TOTAL HATE (Deu) - Total HateЖанр: TRAW Black Metal
Год издания диска: 2002 (2004 re-issue)
Издатель (лейбл): Flaming Hate Productions ( Hellattacks re-issue)
Страна: Germany
Аудио кодек: FLAC (*.flac)
Тип рипа: image+.cue
Битрейт аудио: lossless
Продолжительность: 44:37
Источник (релизер): original CD
Наличие сканов в содержимом раздачи: да
Треклист:
1. Intro 01:13
2. Total Hate 06:27
3. Death of Mankind 03:01
4. Creatures in the Mist 03:12
5. Demons Are Calling my Name 02:49
6. The Immortal Witch 05:15
7. Triumph of Hell 02:37
8. Bloodperversion 03:49
9. Outro 00:49
10. In the Halls of Tortured Souls (5:55)
11. Return of the Witch (5:24)
12. White Eyes (4:07)
Доп. информация:Грязь и страх от TOTAL HATE - сдохни бог, воспрянь поэт!

rock, альбом, lossless, soundtrack, метал, mp3, download, рок, torrent, музыка, бесплатно, трек, торрент, cd, песни, высокое качество, дискография, альбом, metal, скачать, композиции

 Exact Audio Copy V0.99 prebeta 5 from 4. May 2009
Отчёт EAC об извлечении, выполненном 8. января 2011, 19:16
Total Hate / Total Hate
Дисковод: Optiarc DVD RW AD-5240S Adapter: 3 ID: 0
Режим чтения : Достоверность
Использование точного потока : Да
Отключение кэша аудио : Да
Использование указателей C2 : Нет
Коррекция смещения при чтении : 48
Способность читать области Lead-in и Lead-out : Нет
Заполнение пропущенных сэмплов тишиной : Да
Удаление блоков с тишиной в начале и конце : Нет
При вычислениях CRC использовались нулевые сэмплы : Да
Интерфейс : Установленный внешний ASPI-интерфейс
Выходной формат : Пользовательский кодировщик
Выбранный битрейт : 768 kBit/s
Качество : Высокий
Добавление ID3-тэга : Нет
Утилита сжатия : C:\Program Files\Exact Audio Copy\FLAC\FLAC.EXE
Дополнительные параметры : -6 -V -T "ARTIST=%a" -T "TITLE=%t" -T "ALBUM=%g" -T "DATE=%y" -T "TRACKNUMBER=%n" -T "GENRE=%m" -T "COMMENT=%e" %s -o %d
TOC извлечённого CD
Трек | Старт | Длительность | Начальный сектор | Конечный сектор
---------------------------------------------------------------------
1 | 0:00.00 | 7:41.15 | 0 | 34589
2 | 7:41.15 | 3:00.60 | 34590 | 48149
3 | 10:42.00 | 3:11.45 | 48150 | 62519
4 | 13:53.45 | 2:48.36 | 62520 | 75155
5 | 16:42.06 | 5:14.53 | 75156 | 98758
6 | 21:56.59 | 2:37.16 | 98759 | 110549
7 | 24:34.00 | 3:49.30 | 110550 | 127754
8 | 28:23.30 | 0:48.54 | 127755 | 131408
9 | 29:12.09 | 5:54.59 | 131409 | 158017
10 | 35:06.68 | 5:24.25 | 158018 | 182342
11 | 40:31.18 | 4:06.51 | 182343 | 200843
Характеристики диапазона извлечения и сообщения об ошибках
Выбранный диапазон
Имя файла F:\ЯОБРАЗА\Total Hate - Total Hate.wav
Пиковый уровень 100.0 %
Качество диапазона 100.0 %
CRC теста CD478E44
CRC копии CD478E44
Копирование... OK
Ошибок не произошло
AccurateRip: сводка
Трек 1 нет в базе данных
Трек 2 нет в базе данных
Трек 3 нет в базе данных
Трек 4 нет в базе данных
Трек 5 нет в базе данных
Трек 6 нет в базе данных
Трек 7 нет в базе данных
Трек 8 нет в базе данных
Трек 9 нет в базе данных
Трек 10 нет в базе данных
Трек 11 нет в базе данных
Ни одного трека нет в базе AccurateRip
Конец отчёта
Re-released in 2004 on a limited CD (999 copies) by Hellattacks, including bonus
tracks

Adrastos - Guitar, Vocals (2002- ) (Seeds of Hate, Wolfthorn (Deu))
Erebos - Guitar (2007- )
Aer - Bass (2005- ) (Erhabenheit, Purest, Rites of Cleansing, Wolfsschrei, Wolfthorn (Deu))
Winterheart - Drums (2007- ) (Armagedda, Flagellator (USA), Hinsidig, Hunok, Kataplex, Krieg, Marblebog, Nyktalgia, Savagery (Deu), Sterbend, Tairach)

[257.9 MB] Скачать / Download