(Trrrah Black Metal) Trench Hell - Southern Cross Ripper - 2008 (ep), FLAC (image+.cue), lossless - Скачать

TRENCH HELL
Southern Cross Ripper

Жанр: Trrrah Black Metal
Год издания: 2008
Издатель (лейбл): Hells Headbangers Records
Номер по каталогу: Hells 022
Страна: Australia
Аудиокодек: FLAC (*.flac)
Тип рипа: image+.cue
Битрейт аудио: lossless
Продолжительность: 22:06
Источник (релизер): MEIN KD
Наличие сканов в содержимом раздачи: да
Треклист:
1. Intro / Night Stalker 02:10
2. Southern Cross Ripper 03:28
3. Armoured Fist 04:40
4. Morbid Crimes 03:19
5. Last Rites 04:55
6. Infernal Screaming 03:32

песни, метал, альбом, soundtrack, torrent, mp3, metal, бесплатно, альбом, высокое качество, скачать, lossless, дискография, трек, download, композиции, rock, рок, торрент, музыка, cd

 Exact Audio Copy V0.99 prebeta 5 from 4. May 2009
Отчёт EAC об извлечении, выполненном 23. июня 2012, 11:02
TRENCH HELL / Southern Cross Ripper
Дисковод: ASUS DRW-24B3ST Adapter: 5 ID: 0
Режим чтения : Достоверность
Использование точного потока : Да
Отключение кэша аудио : Да
Использование указателей C2 : Нет
Коррекция смещения при чтении : 6
Способность читать области Lead-in и Lead-out : Нет
Заполнение пропущенных сэмплов тишиной : Да
Удаление блоков с тишиной в начале и конце : Нет
При вычислениях CRC использовались нулевые сэмплы : Да
Интерфейс : Установленный внешний ASPI-интерфейс
Выходной формат : Пользовательский кодировщик
Выбранный битрейт : 768 kBit/s
Качество : Высокий
Добавление ID3-тэга : Нет
Утилита сжатия : C:\Program Files\Exact Audio Copy\FLAC\FLAC.EXE
Дополнительные параметры : -6 -V -T "ARTIST=%a" -T "TITLE=%t" -T "ALBUM=%g" -T "DATE=%y" -T "TRACKNUMBER=%n" -T "GENRE=%m" -T "COMMENT=%e" %s -o %d
TOC извлечённого CD
Трек | Старт | Длительность | Начальный сектор | Конечный сектор
---------------------------------------------------------------------
1 | 0:00.00 | 2:10.37 | 0 | 9786
2 | 2:10.37 | 3:28.50 | 9787 | 25436
3 | 5:39.12 | 4:40.12 | 25437 | 46448
4 | 10:19.24 | 3:19.00 | 46449 | 61373
5 | 13:38.24 | 4:55.50 | 61374 | 83548
6 | 18:33.74 | 3:32.12 | 83549 | 99460
Характеристики диапазона извлечения и сообщения об ошибках
Выбранный диапазон
Имя файла G:\KIILLSS\TRENCH HELL - Southern Cross Ripper.wav
Пиковый уровень 100.0 %
Качество диапазона 100.0 %
CRC теста 355B425A
CRC копии 355B425A
Копирование... OK
Ошибок не произошло
AccurateRip: сводка
Трек 1 точность не определена (достоверность 1) [709348A5], AccurateRip вернул [825E7DF1]
Трек 2 точность не определена (достоверность 1) [59EFDEF3], AccurateRip вернул [7D68B383]
Трек 3 точность не определена (достоверность 1) [24494D6D], AccurateRip вернул [DD3E7789]
Трек 4 точность не определена (достоверность 1) [C5081009], AccurateRip вернул [6DA33F2D]
Трек 5 точность не определена (достоверность 1) [DFC887A3], AccurateRip вернул [CEEFED2F]
Трек 6 точность не определена (достоверность 1) [B1DE6BCD], AccurateRip вернул [5CF0605D]
Ни один трек не прошёл проверки на точность
В вашей базе может быть иной вариант штамповки диска
Конец отчёта

Iron Hellsaw Bass
See also: Convent Guilt, ex-Shackles, ex-Ghastly (live)
Hexx Guitars, Bass, Vocals
See also: Carbon (live), ex-Gospel of the Horns, ex-Kill for Satan, ex-Urgrund, ex-Toxic Holocaust (live), ex-Nocturnal Graves
Kellhammer Vocals, Bass. Drums
See also: Kill for Satan, ex-Psychrist

[166.2 MB] Скачать / Download