(True Black Metal) Corpus Christii & Thesyre - F.O.A.D. - 2004 (split), FLAC (image+.cue), lossless - Скачать

CORPUS CHRISTII & THESYRE - F.O.A.D.
Жанр: True Black Metal
Год издания диска: 2004
Издатель (лейбл): Sadolust
Страна: Portugal & Canada
Аудиокодек: FLAC (*.flac)
Тип рипа: image+.cue
Битрейт аудио: lossless
Продолжительность: 41:31
Источник (релизер): original CD
Наличие сканов в содержимом раздачи: да
Треклист:
1. Corpus Christii - War in Thy Name 03:10
2. Corpus Christii - Termination (Thesyre cover) 02:26
3. Corpus Christii - Night Club 04:46
4. Corpus Christii - Deathcrush (Mayhem cover) 04:09
5. Corpus Christii - Cloack of Death 03:09
6. Thesyre - Deathcrush (Mayhem cover) 02:12
7. Thesyre - Worldwide Massgrave 03:38
8. Thesyre - Penetrator (Corpus Christii cover) 03:40
9. Thesyre - Campaign of Fear 02:58
10. Thesyre - Sang Nordique (Akitsa cover) 02:37
11. Thesyre - Independent 08:41

Наказать решил святошу,
Нет ему амнистии!
Его в музлояму брошу,
Врубив CORPUS CHRISTII!
Не думал не гадал святёк Иссайя,
что душу променяет на THE SYRE!

альбом, cd, музыка, песни, бесплатно, mp3, метал, soundtrack, композиции, альбом, высокое качество, torrent, скачать, lossless, rock, рок, дискография, download, metal, торрент, трек

 Exact Audio Copy V0.99 prebeta 5 from 4. May 2009
Отчёт EAC об извлечении, выполненном 4. августа 2011, 22:51
Corpus Christii & Thesyre / F.O.A.D.
Дисковод: ASUS DRW-24B3ST Adapter: 5 ID: 0
Режим чтения : Достоверность
Использование точного потока : Да
Отключение кэша аудио : Да
Использование указателей C2 : Нет
Коррекция смещения при чтении : 6
Способность читать области Lead-in и Lead-out : Нет
Заполнение пропущенных сэмплов тишиной : Да
Удаление блоков с тишиной в начале и конце : Нет
При вычислениях CRC использовались нулевые сэмплы : Да
Интерфейс : Установленный внешний ASPI-интерфейс
Выходной формат : Пользовательский кодировщик
Выбранный битрейт : 768 kBit/s
Качество : Высокий
Добавление ID3-тэга : Нет
Утилита сжатия : C:\Program Files\Exact Audio Copy\FLAC\FLAC.EXE
Дополнительные параметры : -6 -V -T "ARTIST=%a" -T "TITLE=%t" -T "ALBUM=%g" -T "DATE=%y" -T "TRACKNUMBER=%n" -T "GENRE=%m" -T "COMMENT=%e" %s -o %d
TOC извлечённого CD
Трек | Старт | Длительность | Начальный сектор | Конечный сектор
---------------------------------------------------------------------
1 | 0:00.00 | 3:10.49 | 0 | 14298
2 | 3:10.49 | 2:26.17 | 14299 | 25265
3 | 5:36.66 | 4:46.69 | 25266 | 46784
4 | 10:23.60 | 4:09.41 | 46785 | 65500
5 | 14:33.26 | 3:09.06 | 65501 | 79681
6 | 17:42.32 | 2:12.67 | 79682 | 89648
7 | 19:55.24 | 3:38.26 | 89649 | 106024
8 | 23:33.50 | 3:40.40 | 106025 | 122564
9 | 27:14.15 | 2:58.22 | 122565 | 135936
10 | 30:12.37 | 2:37.07 | 135937 | 147718
11 | 32:49.44 | 8:41.64 | 147719 | 186857
Характеристики диапазона извлечения и сообщения об ошибках
Выбранный диапазон
Имя файла F:\ЯОБРАЗА\Corpus Christii & Thesyre - F.O.A.D..wav
Пиковый уровень 99.9 %
Качество диапазона 100.0 %
CRC теста F44041D3
CRC копии F44041D3
Копирование... OK
Ошибок не произошло
AccurateRip: сводка
Трек 1 точное извлечение (доверие 2) [38941A33]
Трек 2 нет в базе данных
Трек 3 точное извлечение (доверие 2) [EFED5827]
Трек 4 нет в базе данных
Трек 5 нет в базе данных
Трек 6 нет в базе данных
Трек 7 нет в базе данных
Трек 8 нет в базе данных
Трек 9 точное извлечение (доверие 2) [C721DED9]
Трек 10 точное извлечение (доверие 2) [A43A4E9F]
Трек 11 нет в базе данных
4 трек(и) скопированы точно
7 трек(и) не содержатся в базе AccurateRip
Некоторые треки не прошли проверку на точность
Конец отчёта

Nocturnus Horrendus Vocals, All Instruments (1998-present)
See also: Coldness, Morte Incandescente, Nox Inferi, Storm Legion, ex-Genocide Kommando, ex-Noctu, ex-InThyFlesh

Eric Syre All Instruments
See also: Aufkrema, Hyena, Akitsa (live), ex-Decayed Remains, ex-Gölëm, ex-Soulseasons, ex-Unlife
Zvord Drums
See also: Aufkrema, Evil Wrath, Growl, Frozen Shadows, ex-Decayed Remains, ex-The Black Dahlia Murder (live), ex-Slaotvean
C.A. Guitars
A.J. Lead Guitars

[308.3 MB] Скачать / Download