(True Black Metal) Malfeitor - Incubus - 2009, FLAC (image+.cue), lossless - Скачать

MALFEITOR
Incubus

Жанр: True Black Metal
Год издания диска: 2009
Издатель (лейбл): Agonia Records
Номер по каталогу: ARCD 066
Страна: Italy
Аудиокодек: FLAC (*.flac)
Тип рипа: image+.cue
Битрейт аудио: lossless
Продолжительность: 55:53
Источник (релизер): MEIN KD
Наличие сканов в содержимом раздачи: да
Треклист:
1. Down with Me 04:53
2. Into the Qliphot of Golachab 06:01
3. Mysterious,Mystical, Majestic 05:32
4. Promethean Fire 05:34
5. Typhonian Gods 07:36
6. Dark Saturnian Chaos 05:50
7. The Other Half 05:29
8. Void of Voids 05:11
9. Incubus 04:39
10. Antisaturno (Thùnapsù) 05:08

download, скачать, soundtrack, музыка, торрент, песни, трек, дискография, lossless, metal, композиции, метал, rock, torrent, mp3, высокое качество, альбом, cd, бесплатно, альбом, рок

 Exact Audio Copy V0.99 prebeta 5 from 4. May 2009
Отчёт EAC об извлечении, выполненном 25. февраля 2012, 12:27
MALFEITOR / Incubus
Дисковод: ASUS DRW-24B3ST Adapter: 5 ID: 0
Режим чтения : Достоверность
Использование точного потока : Да
Отключение кэша аудио : Да
Использование указателей C2 : Нет
Коррекция смещения при чтении : 6
Способность читать области Lead-in и Lead-out : Нет
Заполнение пропущенных сэмплов тишиной : Да
Удаление блоков с тишиной в начале и конце : Нет
При вычислениях CRC использовались нулевые сэмплы : Да
Интерфейс : Установленный внешний ASPI-интерфейс
Выходной формат : Пользовательский кодировщик
Выбранный битрейт : 768 kBit/s
Качество : Высокий
Добавление ID3-тэга : Нет
Утилита сжатия : C:\Program Files\Exact Audio Copy\FLAC\FLAC.EXE
Дополнительные параметры : -6 -V -T "ARTIST=%a" -T "TITLE=%t" -T "ALBUM=%g" -T "DATE=%y" -T "TRACKNUMBER=%n" -T "GENRE=%m" -T "COMMENT=%e" %s -o %d
TOC извлечённого CD
Трек | Старт | Длительность | Начальный сектор | Конечный сектор
---------------------------------------------------------------------
1 | 0:00.00 | 4:52.56 | 0 | 21955
2 | 4:52.56 | 6:01.18 | 21956 | 49048
3 | 10:53.74 | 5:31.64 | 49049 | 73937
4 | 16:25.63 | 5:33.71 | 73938 | 98983
5 | 21:59.59 | 7:36.04 | 98984 | 133187
6 | 29:35.63 | 5:49.52 | 133188 | 159414
7 | 35:25.40 | 5:28.64 | 159415 | 184078
8 | 40:54.29 | 5:11.32 | 184079 | 207435
9 | 46:05.61 | 4:39.04 | 207436 | 228364
10 | 50:44.65 | 5:08.02 | 228365 | 251466
Характеристики диапазона извлечения и сообщения об ошибках
Выбранный диапазон
Имя файла G:\ЯОБРАЗА\MALFEITOR - Incubus.wav
Пиковый уровень 100.0 %
Качество диапазона 100.0 %
CRC теста 4F46D309
CRC копии 4F46D309
Копирование... OK
Ошибок не произошло
AccurateRip: сводка
Трек 1 точное извлечение (доверие 3) [DC37DAF9]
Трек 2 точное извлечение (доверие 3) [B529C727]
Трек 3 точное извлечение (доверие 3) [8D9FA3D0]
Трек 4 точное извлечение (доверие 3) [4033F478]
Трек 5 точное извлечение (доверие 3) [C95B679B]
Трек 6 точное извлечение (доверие 3) [E9584596]
Трек 7 точное извлечение (доверие 3) [0EF4F5EB]
Трек 8 точное извлечение (доверие 3) [1B17CD55]
Трек 9 точное извлечение (доверие 3) [0CC608CB]
Трек 10 точное извлечение (доверие 3) [9A9809E4]
Все треки извлечены точно
Конец отчёта

Narchost Bass
See also: Demon's Shade, Stormcrow
Goraath Drums
See also: Demon's Shade, Stormcrow
Munholy Guitars
See also: Quiet in the Cave
Malfeitor Fabban Vocals (2006-2011)
See also: Aborym, ex-Funeral Oration, ex-Stormlord, ex-Void of Silence
Hell:I0:Kabbalus Guitars (2007-2011)
See also: Aborym, Hour of Penance, Kalki Avatara, Promaetheus Unbound, Shoreborn

[497.9 MB] Скачать / Download